Loading...
Error

Скачать Рэмпейдж / Rampage (Брэд Пейтон) [2018, фантастика, боевик, приключения, BDRip] [1080p] [Dub] [Лицензия (Blu-ray EUR)] [R.G. Goldenshara] торрент без регистрации

Статистика раздачи
Размер:  4,37 GB   |    Скачан:  258 раз
Сидов:  5  [  0 KB/s  ]  
 
 
 
Автор Сообщение

sobmaster

[] 



Рэмпейдж
Rampage




Год выпуска: 2018
Страна: США
Выпущено: New Line Cinema
Слоган: «Больше, чем скала»
Жанр: фантастика, боевик, приключения

Продолжительность: 01:47:16
Перевод: Профессиональный (полное дублирование) (Blu-ray EUR)
Режиссер: Брэд Пейтон
Сценарий: Райан Ингл, Карлтон Кьюз, Райан Кондал
Продюсер: Ричард Бренер, Майкл Диско, Тоби Эммерих
Оператор: Джарон Пресан
Композитор: Эндрю Локингтон
Художник: Бэрри Чусид, Лорел Бергман, Эллиотт Глик
Монтаж: Боб Дюксэй, Джим Мэй
В ролях:


Дуэйн Джонсон (Davis Okoye), Наоми Харрис (Dr. Kate Caldwell), Малин Акерман (Claire Wyden), Джеффри Дин Морган (Harvey Russell), Джейк Лэси (Brett Wyden), Джо Манганьелло (Burke), Марли Шелтон (Dr. Kerry Atkins), П.Дж. Бирн (Nelson), Деметриус Гросс (Colonel Blake), Джек Куэйд (Connor), Бриэнн Хилл (Amy), Мэтт Джералд (Zammit), Уилл Юн Ли (Agent Park), Урайа Фабер (Garrick)
Роли дублировали: Денис Беспалый (Davis Okoye), Вероника Саркисова (Dr. Kate Caldwell), Екатерина Семенова (Claire Wyden), Илья Исаев (Harvey Russell), Николай Быстров (Brett Wyden), Владислав Копп (Burke), Дарья Фролова (Dr. Kerry Atkins), Диомид Виноградов (Nelson), Александр Скиданов, Ариэль Ласкер, Егор Васильев, Элина Фатеева
Бюджет: $120 000 000
Сборы в России: $6 067 350
Зрители: Россия 1.44 млн
Мировая премьера: 11 апреля 2018
Премьера (РФ): 12 апреля 2018, «Каро-Премьер»
Цифровой релиз: 27 июня 2018, «Warner Bros.»
MPAA: - Детям до 13 лет просмотр не желателен

Описание: Приматолог Дэвис Окойи предпочитает держаться подальше от людей и дружит с Джорджем, удивительно умным самцом гориллы, которого он воспитывал с самого рождения. Но вышедший из-под контроля генетический эксперимент превращает послушную обезьяну в яростного монстра. Более того, вскоре обнаруживается, что существуют и другие модифицированные хищники. Пока свежесозданные чудовища превращают в руины Северную Америку, стирая с лица Земли все, что попадается у них на пути, Окойи вместе с опальным генным инженером пытается изобрести антидот, прорываясь по бесконечному полю боя не только, чтобы предотвратить глобальную катастрофу, но и спасти бесстрашное существо, которое когда-то было его другом.


Качество: BDRip 1080p
Контейнер: MKV
Видео: AVC, 1920x800 (2.40:1), 5386 kbps, 23.976 fps, 0.146 bpp
Аудио: русский /; AC3 /; 5.1 /; 48 kHz /; 448 kbps /; 16 bit; ||
Субтитры #1: русские (Forced)
Субтитры #2: русские (Full)
Субтитры #3: английские
Навигация по главам: есть

АНОНСЫ ПОПУЛЯРНЫХ РАЗДАЧ

  • Герой Дуэйна Джонсона водит Ford Bronco 2004 года выпуска. Этот концепт-кар в производство так и не пошёл.

Код:

General
Unique ID                   : 190845436883652238667332126418771322685 (0x8F937E818EB1A3C9A4F2876339AF273D)
Complete name               : E:\Мои рипы\Рэмпейдж.2018.BDRip.1080p.DUB.mkv
Format                      : Matroska
Format version              : Version 4 / Version 2
File size                   : 4.37 GiB
Duration                    : 1 h 47 min
Overall bit rate            : 5 832 kb/s
Movie name                  : Rampage 2018 from ExKinoRay
Encoded date                : UTC 2018-07-10 23:29:13
Writing application         : mkvmerge v6.8.0 ('Theme for Great Cities') 32bit built on Mar  2 2014 21:27:07
Writing library             : libebml v1.3.0 + libmatroska v1.4.1

Video
ID                          : 1
Format                      : AVC
Format/Info                 : Advanced Video Codec
Format profile              : High@L4.1
Format settings             : CABAC / 5 Ref Frames
Format settings, CABAC      : Yes
Format settings, ReFrames   : 5 frames
Codec ID                    : V_MPEG4/ISO/AVC
Duration                    : 1 h 47 min
Bit rate                    : 5 386 kb/s
Width                       : 1 920 pixels
Height                      : 800 pixels
Display aspect ratio        : 2.40:1
Frame rate mode             : Constant
Frame rate                  : 23.976 (23976/1000) FPS
Color space                 : YUV
Chroma subsampling          : 4:2:0
Bit depth                   : 8 bits
Scan type                   : Progressive
Bits/(Pixel*Frame)          : 0.146
Stream size                 : 3.95 GiB (90%)
Writing library             : x264 core 130 r2273 b3065e6
Encoding settings           : cabac=1 / ref=5 / deblock=1:-3:-3 / analyse=0x3:0x113 / me=umh / subme=11 / psy=1 / psy_rd=1.00:0.15 / mixed_ref=1 / me_range=48 / chroma_me=1 / trellis=2 / 8x8dct=1 / cqm=0 / deadzone=21,11 / fast_pskip=0 / chroma_qp_offset=-4 / threads=6 / lookahead_threads=1 / sliced_threads=0 / nr=0 / decimate=0 / interlaced=0 / bluray_compat=0 / constrained_intra=0 / bframes=8 / b_pyramid=2 / b_adapt=2 / b_bias=0 / direct=2 / weightb=1 / open_gop=0 / weightp=2 / keyint=250 / keyint_min=23 / scenecut=40 / intra_refresh=0 / rc=2pass / mbtree=0 / bitrate=5386 / ratetol=1.0 / qcomp=0.60 / qpmin=0 / qpmax=69 / qpstep=4 / cplxblur=20.0 / qblur=0.5 / ip_ratio=1.40 / pb_ratio=1.30 / aq=2:1.00
Language                    : English
Default                     : Yes
Forced                      : No
Color range                 : Limited
Color primaries             : Generic film
Matrix coefficients         : YCgCo

Audio
ID                          : 2
Format                      : AC-3
Format/Info                 : Audio Coding 3
Codec ID                    : A_AC3
Duration                    : 1 h 47 min
Bit rate mode               : Constant
Bit rate                    : 448 kb/s
Channel(s)                  : 6 channels
Channel positions           : Front: L C R, Side: L R, LFE
Sampling rate               : 48.0 kHz
Frame rate                  : 31.250 FPS (1536 SPF)
Bit depth                   : 16 bits
Compression mode            : Lossy
Stream size                 : 344 MiB (8%)
Title                       : Лицензия
Language                    : Russian
Service kind                : Complete Main
Default                     : Yes
Forced                      : No

Text #1
ID                          : 3
Format                      : UTF-8
Codec ID                    : S_TEXT/UTF8
Codec ID/Info               : UTF-8 Plain Text
Title                       : Forced
Language                    : Russian
Default                     : Yes
Forced                      : No

Text #2
ID                          : 4
Format                      : UTF-8
Codec ID                    : S_TEXT/UTF8
Codec ID/Info               : UTF-8 Plain Text
Title                       : Full
Language                    : Russian
Default                     : No
Forced                      : No

Text #3
ID                          : 5
Format                      : UTF-8
Codec ID                    : S_TEXT/UTF8
Codec ID/Info               : UTF-8 Plain Text
Language                    : English
Default                     : No
Forced                      : No

Menu
00:00:00.000                : en:00:00:00.000
00:12:58.528                : en:00:12:58.528
00:19:56.278                : en:00:19:56.278
00:29:53.291                : en:00:29:53.291
00:40:35.391                : en:00:40:35.391
00:49:10.906                : en:00:49:10.906
01:02:38.171                : en:01:02:38.171
01:10:37.650                : en:01:10:37.650
01:20:10.472                : en:01:20:10.472
01:29:23.608                : en:01:29:23.608
01:39:43.186                : en:01:39:43.186






Скачать Рэмпейдж.Rampage.(Брэд.Пейтон).[2018.фантастика.боевик.приключения.BDRip].[1080p].[Dub].[Лицензия.(Blu-ray.EUR)].[R.G.Goldenshara].torrent без регистрации
Золото ЗОЛОТАЯ РАЗДАЧА! СКАЧАННОЕ НЕ ЗАСЧИТЫВАЕТСЯ! Золото
Дата: Зарегистрирован   [ Тип: внутренний ] Как тут cкачать?
MAGNET ссылка
MAGNET ссылка


Скачать .torrent

11 KB

Статус: проверено DHT
Скачан: торрент - 258 раз, раздача полностью - 54 раз
Размер: 4,37 GB
Оценка:  5 (Голосов: 7)
Поблагодарили: 19
Поделиться ссылкой на эту раздачу с друзьями:
В контактеFacebookОдноклассникиTwitterLivejournalМой МирLiveinternet
 

 

maximus0000

[] 

sobmaster, спасибо за рип. А будет ли в твоем исполнении "Первому игроку приготовиться" ?
 

sobmaster

[] 

maximus0000 писал(а):

sobmaster, спасибо за рип. А будет ли в твоем исполнении "Первому игроку приготовиться" ?
Да, уже в работе... ab
 

maximus0000

[] 

ay ждём...
 

sobmaster

[] 

Обновлено до лицензии.
 
Показать сообщения:    


Вы не можете начинать темы
Вы не можете отвечать на сообщения
Вы не можете редактировать свои сообщения
Вы не можете удалять свои сообщения
Вы не можете голосовать в опросах
Вы не можете прикреплять файлы к сообщениям
Вы можете скачивать файлы