Loading...
Error

Скачать Береговая Охрана / Hae anseon / Coast Guard (Ким Ки-Дук /Ki-duk Kim) [2002, Боевик, Драма DVD5] торрент без регистрации

Статистика раздачи
Размер:  3,85 GB   |    Скачан:  149 раз
Сидов:  1  [  0 KB/s  ]  
 
 
 
Автор Сообщение

Marsianka

[] 

Год выпуска: 2002
Страна: Южная Корея
Жанр: Боевик, Драма
Продолжительность: 01:37:34
Перевод: Профессиональный (двухголосый)
Режиссер: Ким Ки-Дук (Ki-duk Kim)
В ролях: Чан Дон-Кан, Ким Чен-хак, Парк Джи-а
Описание: Пляж разделен колючей проволокой. Каждый вечер он становится опасной зоной: любой, заступивший за черту, рискует быть убитым береговой охраной как шпион. Но чем опаснее пляж, тем притягательнее он для любителей острых ощущений. Мечта ефрейтора Кана пристрелить шпиона вызывает насмешки местной молодежи, которая давно не верит в диверсии.
Как-то ночью красавица Ми-чен, дразня своего возлюбленного, затягивает его за ограждение. Кан убивает его в самый интимный момент свидания, за что получает отпуск. Ми-чен сходит с ума, в каждом солдате ей мерещится убитый любовник, чем солдаты без стеснения пользуются. Ефрейтору Кану тоже не удается сохранить рассудок. В связи с очевидным нервным расстройством его увольняют из армии, но Кан не намерен бросать свой пост.
Тем временем брат изнасилованной Ми-чен берется за нож чтобы мсить. Не подозревая о действиях друг друга, ефрейтор Кан и безумная Ми-чен ввергают пляжную жизнь в хаос и превращают жизнь береговой охраны в кровавый кошмар.
2002 МКФ в Пусане
2003 МКФ в Карловых Варах приз ФИПРЕССИ
2003 МКФ в Карловых Варах спецприз города

Файл:
Видео
Идентификатор : 224 (0xE0)
Формат : MPEG Video
Версия формата : Version 2
Профиль формата : Main@Main
Параметр BVOP формата : Да
Параметр матрицы формата : По умолчанию
Продолжительность : 27 м.
Вид битрейта : Переменный
Битрейт : 4152 Кбит/сек
Номинальный битрейт : 6400 Кбит/сек
Ширина : 720 пикс.
Высота : 576 пикс.
Соотношение сторон : 4:3
Частота кадров : 25,000 кадр/сек
Стандарт вещания : PAL
Цветовое пространство : YUV
Подвыборка цветности : 4:2:0
Битовая глубина : 8 бит
Тип развёртки : Чересстрочная
Порядок развёртки : Верхнее поле первое
Метод сжатия : С потерями
Бит/(Пиксели*Кадры) : 0.401
Размер потока : 825 Мбайт (81%)

Аудио #1
Идентификатор : 189 (0xBD)-128 (0x80)
Формат : AC-3
Формат/Информация : Audio Coding 3
Расширение режима : CM (complete main)
Режим смешивания : DVD-Video
Продолжительность : 27 м.
Вид битрейта : Постоянный
Битрейт : 448 Кбит/сек
Каналы : 6 каналов
Расположение каналов : Front: L C R, Side: L R, LFE
Частота : 48,0 КГц
Битовая глубина : 16 бит
Метод сжатия : С потерями
Размер потока : 89,0 Мбайт (9%)

Аудио #2
Идентификатор : 189 (0xBD)-129 (0x81)
Формат : AC-3
Формат/Информация : Audio Coding 3
Расширение режима : CM (complete main)
Режим смешивания : DVD-Video
Продолжительность : 27 м.
Вид битрейта : Постоянный
Битрейт : 448 Кбит/сек
Каналы : 6 каналов
Расположение каналов : Front: L C R, Side: L R, LFE
Частота : 48,0 КГц
Битовая глубина : 16 бит
Метод сжатия : С потерями
Размер потока : 89,0 Мбайт (9%)
Качество: DVD5
Формат: DVD Video
Видео: PAL 4:3 (720x576) VBR
Аудио: Russian (Dolby AC3, 6 ch), Thai (Dolby AC3, 6 ch)



Скачать Береговая.Охрана.Hae.anseon.Coast.Guard.(Ким.Ки-Дук.Ki-duk.Kim).[2002.Боевик.Драма.DVD5].torrent без регистрации
Золото ЗОЛОТАЯ РАЗДАЧА! СКАЧАННОЕ НЕ ЗАСЧИТЫВАЕТСЯ! Золото
Дата: Зарегистрирован   [ Тип: внутренний ] Как тут cкачать?
MAGNET ссылка
MAGNET ссылка


Скачать .torrent

20 KB

Статус: проверено DHT
Скачан: торрент - 149 раз, раздача полностью - 2 раз
Размер: 3,85 GB
Оценка:  - (Голосов: 0)
Поблагодарили: 1
Поделиться ссылкой на эту раздачу с друзьями:
В контактеFacebookОдноклассникиTwitterLivejournalМой МирLiveinternet
 

 
Показать сообщения:    


Вы не можете начинать темы
Вы не можете отвечать на сообщения
Вы не можете редактировать свои сообщения
Вы не можете удалять свои сообщения
Вы не можете голосовать в опросах
Вы не можете прикреплять файлы к сообщениям
Вы можете скачивать файлы