Loading...
Error

Скачать Вспоминая Титанов / Remember the Titans (Боаз Якин) [2000, драма, спорт, HDRip] [DVO] торрент без регистрации

Статистика раздачи
Размер:  744 MB   |    Скачан:  139 раз
Сидов:  1  [  0 KB/s  ]  
 
 
 
Автор Сообщение

Marsianka

[] 

Информация о фильме
Название: Вспоминая Титанов
Оригинальное название: Remember the Titans
Год выхода: 2000
Жанр: драма, спорт
Режиссер: Боаз Якин / Boaz Yakin
В ролях: Дензел Вашингтон /Denzel Washington/, Уилл Пэттон /Will Patton/, Вуд Харрис /Wood Harris/, Райан Херст /Ryan Hurst/, Дональд Фэйзон /Donald Faison/, Крэйг Кирквуд /Craig Kirkwood/, Этан Сапли /Ethan Suplee/, Кип Парду /Kip Pardue/, Хайден Панеттьери /Hayden Panettiere/, Николь Ари Паркер /Nicole Ari Parker/, Кейт Босворт /Kate Bosworth/, Эрл Пуатье /Earl Poitier/, Райан Гослинг /Ryan Gosling/, Бургесс Дженкинс /Burgess Jenkins/, Neal Ghant, Дэвид Джеффресон /David Jefferson/, Престон Брант /Preston Brant/, Джон Майкл Уэтерли /John Michael Weatherly/, Грегори Алан Уильямс /Gregory Alan Williams/, Бретт Райс /Brett Rice/, Ричард Фуллертон /Richard Fullerton/, Дж. Дон Фергюсон /J. Don Ferguson/, Кристен Ли Джонс /Krysten Leigh Jones/, Афемо Омилами /Afemo Omilami/

О фильме:
При виде этих могучих статных парней девушки падают в обморок, а их кавалеры от зависти проливают свое пиво. Это игроки в одну из самых жестких и динамичных спортивных игр мира американский футбол.

Для них нет большей радости в жизни, кроме как с победным ревом «тачдаун!» впечатать мяч в зачетную зону соперника, оставив за спиной живописную композицию из сшибленных с ног вражеских защитников. Победа!

Но мало кто знает, как труден их путь к славе. Герой этого фильма, тренер Герман Бун из тех, кто знает. Он пришел в школьную команду «Титаны» когда она совсем не заслуживала свое название.

Преодолевая сопротивление местного тренера Билла Йоста, Бун приступает к превращению банды лоботрясов в дружную команду.

И аутсайдеры «Титаны» постепенно становятся уверенными в себе грозными игроками, готовыми биться за звание чемпионов штата



Страна: США
Продолжительность: 01:53:27
Перевод: Профессиональный (двухголосый) | Видеосервис

Файл
Кодек: XviD / MP3
Качество: HDRip
Видео: XviD, 688x288 (2.35:1), 23.976 fps, 780 Kbps (0.164 bit/pixel)
Звук: MP3, 48.0 KHz, 2 ch, 128 Kbps, CBR
General
Complete name : E:Remember.the.Titans_[Rutor.org].avi
Format : AVI
Format/Info : Audio Video Interleave
File size : 744 MiB
Duration : 1h 53mn
Overall bit rate : 917 Kbps
Writing application : VirtualDubMod 1.5.10.2 (build 2540/release)
Writing library : VirtualDubMod build 2540/release

Video
ID : 0
Format : MPEG-4 Visual
Format profile : Advanced Simple@L5
Format settings, BVOP : 1
Format settings, QPel : No
Format settings, GMC : No warppoints
Format settings, Matrix : Custom
Codec ID : XVID
Codec ID/Hint : XviD
Duration : 1h 53mn
Bit rate : 780 Kbps
Width : 688 pixels
Height : 288 pixels
Display aspect ratio : 2.40:1
Frame rate : 23.976 fps
Color space : YUV
Chroma subsampling : 4:2:0
Bit depth : 8 bits
Scan type : Progressive
Compression mode : Lossy
Bits/(Pixel*Frame) : 0.164
Stream size : 633 MiB (85%)
Writing library : XviD 1.2.1 (UTC 2008-12-04)

Audio
ID : 1
Format : MPEG Audio
Format version : Version 1
Format profile : Layer 3
Codec ID : 55
Codec ID/Hint : MP3
Duration : 1h 53mn
Bit rate mode : Constant
Bit rate : 128 Kbps
Channel(s) : 2 channels
Sampling rate : 48.0 KHz
Compression mode : Lossy
Stream size : 104 MiB (14%)
Alignment : Aligned on interleaves
Interleave, duration : 42 ms (1.00 video frame)
Interleave, preload duration : 504 ms
Writing library : LAME3.97
Encoding settings : -m s -V 4 -q 2 -lowpass 17 -b 128



Скачать Вспоминая.Титанов.Remember.the.Titans.(Боаз.Якин).[2000.драма.спорт.HDRip].[DVO].torrent без регистрации
Золото ЗОЛОТАЯ РАЗДАЧА! СКАЧАННОЕ НЕ ЗАСЧИТЫВАЕТСЯ! Золото
Дата: Зарегистрирован   [ Тип: внутренний ] Как тут cкачать?
MAGNET ссылка
MAGNET ссылка


Скачать .torrent

15 KB

Статус: проверено DHT
Скачан: торрент - 139 раз, раздача полностью - 41 раз
Размер: 744 MB
Оценка:  - (Голосов: 0)
Поблагодарили: 5
Поделиться ссылкой на эту раздачу с друзьями:
В контактеFacebookОдноклассникиTwitterLivejournalМой МирLiveinternet
 

 
Показать сообщения:    


Вы не можете начинать темы
Вы не можете отвечать на сообщения
Вы не можете редактировать свои сообщения
Вы не можете удалять свои сообщения
Вы не можете голосовать в опросах
Вы не можете прикреплять файлы к сообщениям
Вы можете скачивать файлы