Loading...
Error

/ American Pie ( , ) [1999 ., , BDRip] [720p] [Unrated] [DUB]

5,36 GB   |    :  170
1  [  0 KB/s  ]  
 
 
 

leon030982

[] 


/ American Pie
: 1999
:
:
: 01:35:37
: ( )
: ,
:
: / Paul Weitz, / Chris Weitz
: , , , , , , , , ,
: , . .
R - 17
6.90 (147 982)


. : Diablo .
: BDRip 720p -
: MKV
: MPEG-4 AVC Video 6995 kbps 1280 x 694 p / 23.976 fps / 1.846 : 1 / High Profile 4.1
: Russian / Dolby Digital Audio 5.1 / 48 kHz / 384 kbps |
: English / Dolby Digital Audio 5.1 / 48 kHz / 640 kbps

:

General
Complete name : X:\ -= =-\ (1999. American Pie) 720p.mkv
Format : Matroska
File size : 5.36 GiB
Duration : 1h 35mn
Overall bit rate : 8 022 Kbps
Movie name : http://rutracker.org/forum/viewtopic.php?t=4024904
Encoded date : UTC 2012-04-15 14:27:31
Writing application : mkvmerge v4.9.1 ('Ich will') Jul 11 2011 23:53:15
Writing library : libebml v1.2.1 + libmatroska v1.1.1
Video
ID : 1
Format : AVC
Format/Info : Advanced Video Codec
Format profile : High@L4.1
Format settings, CABAC : Yes
Format settings, ReFrames : 9 frames
Muxing mode : Container profile=Unknown@4.1
Codec ID : V_MPEG4/ISO/AVC
Duration : 1h 35mn
Bit rate : 7 000 Kbps
Width : 1 280 pixels
Height : 694 pixels
Display aspect ratio : 16:9
Frame rate : 23.976 fps
Color space : YUV
Chroma subsampling : 4:2:0
Bit depth : 8 bits
Scan type : Progressive
Bits/(Pixel*Frame) : 0.329
Stream size : 4.57 GiB (85%)
Writing library : x264 core 120 r2164 da19765
Encoding settings : cabac=1 / ref=9 / deblock=1:-3:-3 / analyse=0x3:0x133 / me=tesa / subme=10 / psy=1 / psy_rd=1.05:0.00 / mixed_ref=1 / me_range=48 / chroma_me=1 / trellis=2 / 8x8dct=1 / cqm=0 / deadzone=21,11 / fast_pskip=0 / chroma_qp_offset=-2 / threads=15 / sliced_threads=0 / nr=0 / decimate=1 / interlaced=0 / bluray_compat=0 / constrained_intra=0 / bframes=8 / b_pyramid=2 / b_adapt=2 / b_bias=0 / direct=3 / weightb=1 / open_gop=0 / weightp=2 / keyint=250 / keyint_min=23 / scenecut=40 / intra_refresh=0 / rc_lookahead=60 / rc=2pass / mbtree=1 / bitrate=7000 / ratetol=1.0 / qcomp=0.70 / qpmin=0 / qpmax=69 / qpstep=4 / cplxblur=20.0 / qblur=0.5 / vbv_maxrate=40000 / vbv_bufsize=30000 / nal_hrd=none / ip_ratio=1.40 / aq=1:0.80
Language : English
Audio #1
ID : 2
Format : AC-3
Format/Info : Audio Coding 3
Mode extension : CM (complete main)
Codec ID : A_AC3
Duration : 1h 35mn
Bit rate mode : Constant
Bit rate : 384 Kbps
Channel(s) : 6 channels
Channel positions : Front: L C R, Side: L R, LFE
Sampling rate : 48.0 KHz
Bit depth : 16 bits
Stream size : 263 MiB (5%)
Title :
Language : Russian
Audio #2
ID : 3
Format : AC-3
Format/Info : Audio Coding 3
Mode extension : CM (complete main)
Codec ID : A_AC3
Duration : 1h 35mn
Bit rate mode : Constant
Bit rate : 640 Kbps
Channel(s) : 6 channels
Channel positions : Front: L C R, Side: L R, LFE
Sampling rate : 48.0 KHz
Bit depth : 16 bits
Stream size : 438 MiB (8%)
Language : English
Text #1
ID : 4
Format : UTF-8
Codec ID : S_TEXT/UTF8
Codec ID/Info : UTF-8 Plain Text
Language : Russian
Text #2
ID : 5
Format : UTF-8
Codec ID : S_TEXT/UTF8
Codec ID/Info : UTF-8 Plain Text
Language : English
Text #3
ID : 6
Format : UTF-8
Codec ID : S_TEXT/UTF8
Codec ID/Info : UTF-8 Plain Text
Title : SDH
Language : English
Text #4
ID : 7
Format : UTF-8
Codec ID : S_TEXT/UTF8
Codec ID/Info : UTF-8 Plain Text
Language : Chinese
Menu
00:00:00.000 : en:Illegal Channels
00:01:38.932 : en:Main Titles
00:04:00.323 : en:The Virgins
00:06:19.129 : en:Stifler's Party
00:12:19.781 : en:The Pale Ale
00:16:48.549 : en:The Pact
00:24:08.238 : en:A Father-Son Chat
00:27:53.755 : en:The Bible
00:31:33.058 : en:Just Like Pie...
00:35:52.442 : en:By the Book
00:42:46.689 : en:Nadia on the Net
01:00:11.399 : en:Stifler's Revenge
01:03:41.359 : en:Something More Important
01:07:41.724 : en:I'm Gonna Have Sex
01:11:02.383 : en:The Prom
01:16:47.436 : en:The Palace of Love
01:27:13.770 : en:The Next Step
01:31:27.440 : en:End Titles
________ ____ ______
/ ____/ /______/ / / / / __ \
/ / / __/ ___/ / /_/ / / / /
/ /___/ /_/ / / / __ / /_/ /
\____/\__/_/ /_/_/ /_/_____/
American Pie UNRATED 1999 720p BluRay DD5.1 x264-CtrlHD
Plot
Four teenage boys enter a pact to lose their virginity by prom night...
General Information
RUNTiME.........: 01h:35m:38s
SiZE............: 5.23 GB
ViDEO CODEC.....: x264, 2pass, L4.1
FRAMERATE.......: 23.976 fps
ViDEO BiTRATE...: 7000 Kbps
RESOLUTiON......: 1280x694 (OAR)
AUDiO1..........: AC-3 5.1 English @ 640 kbps
AUDiO2..........: AC-3 2.0 Commentary @ 192 kbps
SUBTiTLE........: eng, eng-sdh, chi
SOURCE..........: American Pie 1999 1080p Blu-ray AVC DTS-HD MA 5.1-TTG (Thx to MeGUI)
IMDb............: http://www.imdb.com/title/tt0163651/
IMDb RATiNG.....: 6.9/10
Post Information
ENCODER.........: CtrlHD
RELEASE DATE....: 31/03/2012
x264 Information
avs [info]: 1280x694p 0:0 @ 24000/1001 fps (cfr)
x264 [warning]: --ssim used with psy on: results will be invalid!
x264 [warning]: --tune ssim should be used if attempting to benchmark ssim!
x264 [info]: using cpu capabilities: MMX2 SSE2Fast SSSE3 FastShuffle SSE4.2
x264 [info]: profile High, level 4.1
x264 [info]: frame I:1353 Avg QP:15.00 size:152765
x264 [info]: frame P:27024 Avg QP:15.84 size: 66135
x264 [info]: frame B:109188 Avg QP:18.37 size: 27689
x264 [info]: consecutive B-frames: 1.7% 1.1% 5.2% 14.0% 17.4% 48.3% 7.6% 2.6% 2.1%
x264 [info]: mb I I16..4: 3.7% 81.3% 15.0%
x264 [info]: mb P I16..4: 0.6% 11.8% 1.2% P16..4: 30.0% 30.3% 18.6% 3.0% 0.4% skip: 4.1%
x264 [info]: mb B I16..4: 0.0% 1.6% 0.1% B16..8: 38.4% 18.8% 6.9% direct: 9.1% skip:25.0% L0:44.1% L1:39.8% BI:16.1%
x264 [info]: 8x8 transform intra:87.6% inter:58.0%
x264 [info]: direct mvs spatial:99.5% temporal:0.5%
x264 [info]: coded y,uvDC,uvAC intra: 95.3% 90.3% 76.0% inter: 42.8% 27.4% 6.3%
x264 [info]: i16 v,h,dc,p: 57% 9% 9% 25%
x264 [info]: i8 v,h,dc,ddl,ddr,vr,hd,vl,hu: 14% 8% 10% 9% 13% 13% 11% 11% 11%
x264 [info]: i4 v,h,dc,ddl,ddr,vr,hd,vl,hu: 17% 7% 4% 10% 15% 15% 12% 12% 10%
x264 [info]: i8c dc,h,v,p: 49% 17% 18% 15%
x264 [info]: Weighted P-Frames: Y:3.1% UV:0.6%
x264 [info]: ref P L0: 42.4% 9.4% 19.4% 7.4% 7.0% 4.6% 4.6% 2.4% 2.7% 0.2% 0.0%
x264 [info]: ref B L0: 71.4% 12.4% 6.2% 3.5% 2.6% 2.2% 1.2% 0.4%
x264 [info]: ref B L1: 92.4% 7.6%
x264 [info]: SSIM Mean Y:0.9831198 (17.726db)
x264 [info]: kb/s:6995.52



..American.Pie.(...).[1999...BDRip].[720p].[Unrated].[DUB].torrent
  ! ! 
:   [ : ] c?
MAGNET
MAGNET


.torrent

27 KB

: DHT
: - 170 , - 152
: 5,36 GB
- (: 0)
: 1
:
 FacebookTwitterLivejournal Liveinternet
 

 
: