Loading...
Error

1 / 1 / Loaded Weapon 1 / National Lampoon's Loaded Weapon 1 ( ) [1993, , , HDTV] [1080i] [DVO] + 3x[AVO]

10,56 GB   |    :  143
1  [  0 KB/s  ]  
 
 
 

leon030982

[] 


1 / National Lampoon's Loaded Weapon 1
: 1993
:
:
: 01:18:48
: (, )
: (, ) x3
:
: / Gene Quintano
: /Emilio Estevez/, /Whoopi Goldberg/, . /Samuel L. Jackson/, /Jon Lovitz/, /Tim Curry/, /Kathy Ireland/, /Frank McRae/, /William Shatner/, /Lance Kinsey/, /Bill Nunn/, /Willis Robert/, /Vito Scotti/, /Bruce Willis/
: " " (National Lampoon) , - " ", " ", " " , "", " " " ". ? . (c) .
. : . , N- . - . , .

: HDTV 1080i [Loaded Weapon 1 1993 1080i HDTV DD5.1 MPEG2-CtrlHD] -
: MKV
: MPEG-2 Video 16.8 Mbps 1080i / 29.97 fps / 16: 9 / High Profile 4.1
: Dolby Digital Audio Russian 2.0 / 48 kHz / 192 kbps (/) [ : , ; : ]
: Dolby Digital Audio Russian 2.0 / 48 kHz / 192 kbps ()
: Dolby Digital Audio Russian 2.0 / 48 kHz / 192 kbps ()
: Dolby Digital Audio Russian 2.0 / 48 kHz / 192 kbps ()
: Dolby Digital Audio English 5.1 / 48 kHz / 384 kbps

:

General
Complete name : Z:\\ 1 (1993. National Lampoon's Loaded Weapon 1).mkv
Format : Matroska
File size : 10.6 GiB
Duration : 1h 22mn
Overall bit rate : 18.3 Mbps
Movie name : http://rutracker.org/forum/viewtopic.php?t=4024142
Encoded date : UTC 2012-04-14 23:03:10
Writing application : mkvmerge v4.9.1 ('Ich will') Jul 11 2011 23:53:15
Writing library : libebml v1.2.1 + libmatroska v1.1.1
Video
ID : 1
Format : MPEG Video
Format version : Version 2
Format profile : Main@High
Format settings, BVOP : No
Format settings, Matrix : Default
Codec ID : V_MPEG2
Codec ID/Info : MPEG 1 or 2 Video
Duration : 1h 22mn
Bit rate mode : Variable
Bit rate : 16.8 Mbps
Nominal bit rate : 80.0 Mbps
Width : 1 920 pixels
Height : 1 080 pixels
Display aspect ratio : 16:9
Frame rate : 29.970 fps
Color space : YUV
Chroma subsampling : 4:2:0
Bit depth : 8 bits
Scan type : Interlaced
Scan order : Top Field First
Bits/(Pixel*Frame) : 0.271
Stream size : 9.69 GiB (92%)
Title : Loaded Weapon 1 1993 1080i HDTV DD5.1 MPEG2-CtrlHD
Language : English
Audio #1
ID : 2
Format : AC-3
Format/Info : Audio Coding 3
Mode extension : CM (complete main)
Codec ID : A_AC3
Duration : 1h 22mn
Bit rate mode : Constant
Bit rate : 192 Kbps
Channel(s) : 2 channels
Channel positions : Front: L R
Sampling rate : 48.0 KHz
Bit depth : 16 bits
Stream size : 113 MiB (1%)
Title : DVO []
Language : Russian
Audio #2
ID : 3
Format : AC-3
Format/Info : Audio Coding 3
Mode extension : CM (complete main)
Codec ID : A_AC3
Duration : 1h 22mn
Bit rate mode : Constant
Bit rate : 192 Kbps
Channel(s) : 2 channels
Channel positions : Front: L R
Sampling rate : 48.0 KHz
Bit depth : 16 bits
Stream size : 113 MiB (1%)
Title : AVO [ ]
Language : Russian
Audio #3
ID : 4
Format : AC-3
Format/Info : Audio Coding 3
Mode extension : CM (complete main)
Codec ID : A_AC3
Duration : 1h 22mn
Bit rate mode : Constant
Bit rate : 192 Kbps
Channel(s) : 2 channels
Channel positions : Front: L R
Sampling rate : 48.0 KHz
Bit depth : 16 bits
Stream size : 113 MiB (1%)
Title : AVO [ ]
Language : Russian
Audio #4
ID : 5
Format : AC-3
Format/Info : Audio Coding 3
Mode extension : CM (complete main)
Codec ID : A_AC3
Duration : 1h 22mn
Bit rate mode : Constant
Bit rate : 192 Kbps
Channel(s) : 2 channels
Channel positions : Front: L R
Sampling rate : 48.0 KHz
Bit depth : 16 bits
Stream size : 113 MiB (1%)
Title : AVO [ ]
Language : Russian
Audio #5
ID : 6
Format : AC-3
Format/Info : Audio Coding 3
Mode extension : CM (complete main)
Codec ID : A_AC3
Duration : 1h 22mn
Bit rate mode : Constant
Bit rate : 384 Kbps
Channel(s) : 6 channels
Channel positions : Front: L C R, Side: L R, LFE
Sampling rate : 48.0 KHz
Bit depth : 16 bits
Stream size : 227 MiB (2%)
Language : English
Text
ID : 7
Format : UTF-8
Codec ID : S_TEXT/UTF8
Codec ID/Info : UTF-8 Plain Text
Language : English



..1...1.Loaded.Weapon.1.National.Lampoon's.Loaded.Weapon.1.(.).[1993...HDTV].[1080i].[DVO].+.3x[AVO].torrent
  ! ! 
:   [ : ] c?
MAGNET
MAGNET


.torrent

53 KB

: DHT
: - 143 , - 30
: 10,56 GB
5 (: 1)
: 3
:
 FacebookTwitterLivejournal Liveinternet
 

 
: