Loading...
Error

2 / The Evil Dead II ( ) [1987 ., , , , , BDRemux] [1080p] [DVO] ( ) + 2x[MVO] (, CP DIGITAL) + 2x[AVO] (, )

19,3 GB   |    :  156
1  [  0 KB/s  ]  
 
 
 

leon030982

[] 


2 / Evil Dead II
: 1987
:
: , , ,
: 01:24:13
: (, )
: (, )
: (, ) CP DIGITAL
: (, )
: (, )
C: English, Dutch, German, Spanish, Swedish
: / Sam Raimi

: , , ( ), , , , , , ( 4)
: , , . , "" , . , , , . !

IMDB
: BDRemux (BitHQ)
: MKV
: MPEG-4 AVC Video 27.7 Mbps 1920 x 1080 / 23.976 fps / 16:9 / High Profile 4.1 / 0.557
1 (RUS): DTS Audio 5.1 / 48 kHz / 1510 kbps | (, ) - [. .]
2 (RUS): 48 kHz, AC3 Dolby Digital, 5/1 ch, ~384.00 kbps avg | (, ) - []
3 (RUS): 48 kHz, AC3 Dolby Digital, 5/1 ch, ~448.00 kbps avg | (, ) - [CP DIGITAL]
4 (RUS): 48 kHz, AC3 Dolby Digital, 5/1 ch, ~448.00 kbps avg | (, ) - ( )
5 (RUS): 48 kHz, AC3 Dolby Digital, 2/0 ch, ~192.00 kbps avg | (, ) - ( )
6 (ENG): DTS Audio 5.1 / 48 kHz / 1510 kbps |

:

General
Complete name : Y:\+ (70-80 xx)\ 2 (1987. The Evil Dead II).mkv
Format : Matroska
File size : 19.3 GiB
Duration : 1h 24mn
Overall bit rate : 32.8 Mbps
Movie name : The Evil Dead II
Encoded date : UTC 2011-07-21 06:01:48
Writing application : mkvmerge v4.9.1 ('Ich will') Jul 11 2011 23:53:15
Writing library : libebml v1.2.1 + libmatroska v1.1.1
Video
ID : 1
Format : AVC
Format/Info : Advanced Video Codec
Format profile : High@L4.1
Format settings, CABAC : Yes
Format settings, ReFrames : 2 frames
Muxing mode : Container profile=Unknown@4.1
Codec ID : V_MPEG4/ISO/AVC
Duration : 1h 24mn
Bit rate mode : Variable
Bit rate : 27.7 Mbps
Width : 1 920 pixels
Height : 1 080 pixels
Display aspect ratio : 16:9
Frame rate : 23.976 fps
Color space : YUV
Chroma subsampling : 4:2:0
Bit depth : 8 bits
Scan type : Progressive
Bits/(Pixel*Frame) : 0.556
Stream size : 16.3 GiB (84%)
Language : English
Audio #1
ID : 2
Format : DTS
Format/Info : Digital Theater Systems
Codec ID : A_DTS
Duration : 1h 24mn
Bit rate mode : Constant
Bit rate : 1 510 Kbps
Channel(s) : 6 channels
Channel positions : Front: L C R, Side: L R, LFE
Sampling rate : 48.0 KHz
Bit depth : 24 bits
Stream size : 910 MiB (5%)
Title : DVO [. .]
Language : Russian
Audio #2
ID : 3
Format : AC-3
Format/Info : Audio Coding 3
Mode extension : CM (complete main)
Codec ID : A_AC3
Duration : 1h 24mn
Bit rate mode : Constant
Bit rate : 384 Kbps
Channel(s) : 6 channels
Channel positions : Front: L C R, Side: L R, LFE
Sampling rate : 48.0 KHz
Bit depth : 16 bits
Stream size : 231 MiB (1%)
Title : MVO []
Language : Russian
Audio #3
ID : 4
Format : AC-3
Format/Info : Audio Coding 3
Mode extension : CM (complete main)
Codec ID : A_AC3
Duration : 1h 24mn
Bit rate mode : Constant
Bit rate : 448 Kbps
Channel(s) : 6 channels
Channel positions : Front: L C R, Side: L R, LFE
Sampling rate : 48.0 KHz
Bit depth : 16 bits
Stream size : 270 MiB (1%)
Title : MVO [CP DIGITAL]
Language : Russian
Audio #4
ID : 5
Format : AC-3
Format/Info : Audio Coding 3
Mode extension : CM (complete main)
Codec ID : A_AC3
Duration : 1h 24mn
Bit rate mode : Constant
Bit rate : 448 Kbps
Channel(s) : 6 channels
Channel positions : Front: L C R, Side: L R, LFE
Sampling rate : 48.0 KHz
Bit depth : 16 bits
Stream size : 270 MiB (1%)
Title : AVO []
Language : Russian
Audio #5
ID : 6
Format : AC-3
Format/Info : Audio Coding 3
Mode extension : CM (complete main)
Codec ID : A_AC3
Duration : 1h 24mn
Bit rate mode : Constant
Bit rate : 192 Kbps
Channel(s) : 2 channels
Channel positions : Front: L R
Sampling rate : 48.0 KHz
Bit depth : 16 bits
Stream size : 116 MiB (1%)
Title : AVO []
Language : Russian
Audio #6
ID : 7
Format : DTS
Format/Info : Digital Theater Systems
Codec ID : A_DTS
Duration : 1h 24mn
Bit rate mode : Constant
Bit rate : 1 510 Kbps
Channel(s) : 6 channels
Channel positions : Front: L C R, Side: L R, LFE
Sampling rate : 48.0 KHz
Bit depth : 24 bits
Stream size : 910 MiB (5%)
Title : Original
Language : English
Text #1
ID : 8
Format : UTF-8
Codec ID : S_TEXT/UTF8
Codec ID/Info : UTF-8 Plain Text
Language : English
Text #2
ID : 9
Format : UTF-8
Codec ID : S_TEXT/UTF8
Codec ID/Info : UTF-8 Plain Text
Language : Dutch
Text #3
ID : 10
Format : UTF-8
Codec ID : S_TEXT/UTF8
Codec ID/Info : UTF-8 Plain Text
Language : German
Text #4
ID : 11
Format : UTF-8
Codec ID : S_TEXT/UTF8
Codec ID/Info : UTF-8 Plain Text
Language : Greek
Text #5
ID : 12
Format : UTF-8
Codec ID : S_TEXT/UTF8
Codec ID/Info : UTF-8 Plain Text
Language : Spanish
Text #6
ID : 13
Format : UTF-8
Codec ID : S_TEXT/UTF8
Codec ID/Info : UTF-8 Plain Text
Language : Swedish



..2.The.Evil.Dead.II.(.).[1987......BDRemux].[1080p].[DVO].(..).+.2x[MVO].(.CP.DIGITAL).+.2x[AVO].(.).torrent
  ! ! 
:   [ : ] c?
MAGNET
MAGNET


.torrent

97 KB

: DHT
: - 156 , - 9
: 19,3 GB
- (: 0)
: 2
:
 FacebookTwitterLivejournal Liveinternet
 

 
: