Loading...
Error

Скачать Вечно молодой / Forever Young (Стив Майнер) [1992, Фантастика, мелодрама, комедия, приключения, HDTVRip] [720p] [MVO]+3x[AVO] торрент без регистрации

Статистика раздачи
Размер:  5,05 GB   |    Скачан:  144 раза
Сидов:  1  [  0 KB/s  ]  
 
 
 
Автор Сообщение

Marsianka

[] 

Информация о фильме
Название: Вечно молодой
Оригинальное название: Forever Young
Год выхода: 1992
Жанр: Фантастика, мелодрама, комедия, приключения
Режиссер: Стив Майнер
В ролях: Мэл Гибсон, Джейми Ли Кёртис, Элайджа Вуд, Изабель Глэссер, Джордж Уэндт, Джо Мортон, Николас Сурови, Дэвид Маршалл Грант, Роберт Хай Гормен, Милли Слэвин, Майкл А. Гурджиан, Вероника Лорен, Арт Лафлёр, Эрик Пиерпоинт, Уолтон Гоггинс, Аманда Формен

О фильме:
События разворачиваются в 1939 году. Бесшабашный пилот-испытатель Дэниэл МакКормик никак не может отважиться сделать предложение своей возлюбленной Хелен, откладывая до последнего момента. Но счастье не ждет до завтра - девушка впадает в состояние комы в результате несчастного случая. Убитый горем Дэвид, соглашается на уникальный криогенный эксперимент, в котором он будет заморожен на год. Когда МакКормик пришел в сознание, на улице уже был 1992 год...



Страна: США, Канада
Студия: Icon Entertainmnet International, Warner Bros. Pictures
Продолжительность: 01:41:31
Перевод: Профессиональный многоголосый, закадровый, Авторский одноголосый, закадровый (Ю. Живов, А. Михалев, В. Горчаков)

Файл
Кодек: H 264
Качество: HDTVRip 720p
Видео: 5781 kb/s, 1280x720
Звук:
Аудио#1: Russian: AC3, (2 ch), 192kb/s|Многоголосый, закадровый ТК "Россия"
Аудио#2: Russian: AC3, (2 ch), 384kb/s|Авторский, одноголосый (Ю. Живов)
Аудио#3: Russian: AC3, (2 ch), 192kb/s|Авторский, одноголосый (А. Михалев)
Аудио#4: Russian: AC3, (2 ch), 192kb/s|Авторский, одноголосый (В. Горчаков)
Аудио#5: English: AC3, (2 ch), 384kb/s
Субтитры: English

Семпл
General
Unique ID : 205383183384119439956320791236128351163 (0x9A835CBF6296BBD994C4372F714D23BB)
Complete name : C:UsersСергейDownloadsОбычные фильмывечно молодойVechno.Molodoi.1992.HDTV720p.mkv
Format : Matroska
Format version : Version 2
File size : 5.05 GiB
Duration : 1h 41mn
Overall bit rate : 7 125 Kbps
Encoded date : UTC 2012-04-19 10:51:48
Writing application : mkvmerge v5.5.0 ('Healer') built on Apr 6 2012 21:43:24
Writing library : libebml v1.2.3 + libmatroska v1.3.0

Video
ID : 1
Format : AVC
Format/Info : Advanced Video Codec
Format profile : High@L4.1
Format settings, CABAC : Yes
Format settings, ReFrames : 9 frames
Codec ID : V_MPEG4/ISO/AVC
Duration : 1h 41mn
Bit rate : 5 781 Kbps
Width : 1 280 pixels
Height : 720 pixels
Display aspect ratio : 16:9
Frame rate : 23.976 fps
Color space : YUV
Chroma subsampling : 4:2:0
Bit depth : 8 bits
Scan type : Progressive
Bits/(Pixel*Frame) : 0.262
Stream size : 4.00 GiB (79%)
Writing library : x264 core 115 r1995 c1e60b9
Encoding settings : cabac=1 / ref=9 / deblock=1:-3:-3 / analyse=0x3:0x133 / me=umh / subme=9 / psy=1 / psy_rd=0.90:0.00 / mixed_ref=1 / me_range=32 / chroma_me=1 / trellis=2 / 8x8dct=1 / cqm=0 / deadzone=21,11 / fast_pskip=0 / chroma_qp_offset=-2 / threads=6 / sliced_threads=0 / nr=0 / decimate=1 / interlaced=0 / bluray_compat=0 / constrained_intra=0 / bframes=6 / b_pyramid=2 / b_adapt=2 / b_bias=0 / direct=3 / weightb=1 / open_gop=0 / weightp=2 / keyint=250 / keyint_min=23 / scenecut=40 / intra_refresh=0 / rc=2pass / mbtree=0 / bitrate=5781 / ratetol=1.0 / qcomp=0.60 / qpmin=0 / qpmax=69 / qpstep=4 / cplxblur=20.0 / qblur=0.5 / ip_ratio=1.40 / pb_ratio=1.30 / aq=1:0.70
Language : English
Default : Yes
Forced : No

Audio #1
ID : 2
Format : AC-3
Format/Info : Audio Coding 3
Mode extension : CM (complete main)
Codec ID : A_AC3
Duration : 1h 41mn
Bit rate mode : Constant
Bit rate : 192 Kbps
Channel(s) : 2 channels
Channel positions : Front: L R
Sampling rate : 48.0 KHz
Bit depth : 16 bits
Compression mode : Lossy
Stream size : 139 MiB (3%)
Title : Многоголосый
Language : Russian
Default : Yes
Forced : No

Audio #2
ID : 3
Format : AC-3
Format/Info : Audio Coding 3
Mode extension : CM (complete main)
Codec ID : A_AC3
Duration : 1h 41mn
Bit rate mode : Constant
Bit rate : 384 Kbps
Channel(s) : 2 channels
Channel positions : Front: L R
Sampling rate : 48.0 KHz
Bit depth : 16 bits
Compression mode : Lossy
Stream size : 279 MiB (5%)
Title : Живов
Language : Russian
Default : No
Forced : No

Audio #3
ID : 4
Format : AC-3
Format/Info : Audio Coding 3
Mode extension : CM (complete main)
Codec ID : A_AC3
Duration : 1h 41mn
Bit rate mode : Constant
Bit rate : 192 Kbps
Channel(s) : 2 channels
Channel positions : Front: L R
Sampling rate : 48.0 KHz
Bit depth : 16 bits
Compression mode : Lossy
Stream size : 139 MiB (3%)
Title : Михалёв
Language : Russian
Default : No
Forced : No

Audio #4
ID : 5
Format : AC-3
Format/Info : Audio Coding 3
Mode extension : CM (complete main)
Codec ID : A_AC3
Duration : 1h 41mn
Bit rate mode : Constant
Bit rate : 192 Kbps
Channel(s) : 2 channels
Channel positions : Front: L R
Sampling rate : 48.0 KHz
Bit depth : 16 bits
Compression mode : Lossy
Stream size : 139 MiB (3%)
Title : Горчаков
Language : Russian
Default : No
Forced : No

Audio #5
ID : 6
Format : AC-3
Format/Info : Audio Coding 3
Mode extension : CM (complete main)
Codec ID : A_AC3
Duration : 1h 41mn
Bit rate mode : Constant
Bit rate : 384 Kbps
Channel(s) : 2 channels
Channel positions : Front: L R
Sampling rate : 48.0 KHz
Bit depth : 16 bits
Compression mode : Lossy
Stream size : 279 MiB (5%)
Language : English
Default : No
Forced : No

Text
ID : 7
Format : UTF-8
Codec ID : S_TEXT/UTF8
Codec ID/Info : UTF-8 Plain Text
Title : Eng
Language : English
Default : No
Forced : No



Скачать Вечно.молодой.Forever.Young.(Стив.Майнер).[1992.Фантастика.мелодрама.комедия.приключения.HDTVRip].[720p].[MVO]+3x[AVO].torrent без регистрации
Золото ЗОЛОТАЯ РАЗДАЧА! СКАЧАННОЕ НЕ ЗАСЧИТЫВАЕТСЯ! Золото
Дата: Зарегистрирован   [ Тип: внутренний ] Как тут cкачать?
MAGNET ссылка
MAGNET ссылка


Скачать .torrent

26 KB

Статус: проверено DHT
Скачан: торрент - 144 раз, раздача полностью - 11 раз
Размер: 5,05 GB
Оценка:  - (Голосов: 0)
Поблагодарили: 2
Поделиться ссылкой на эту раздачу с друзьями:
В контактеFacebookОдноклассникиTwitterLivejournalМой МирLiveinternet
 

 
Показать сообщения:    


Вы не можете начинать темы
Вы не можете отвечать на сообщения
Вы не можете редактировать свои сообщения
Вы не можете удалять свои сообщения
Вы не можете голосовать в опросах
Вы не можете прикреплять файлы к сообщениям
Вы можете скачивать файлы