Loading...
Error

Скачать Отрезанные от мира / Потерянные / Marooned (Джон Стёрджес / John Sturges) [1969 г., США, фантастика, триллер, драма, приключения, HDTV 720p] MVO + Original Eng торрент без регистрации

Статистика раздачи
Размер:  6,35 GB   |    Скачан:  141 раз

Полного источника не было: 30 минут

 
 
 
Автор Сообщение

Dr_Shmurge

[] 

Отрезанные от мира / Потерянные / Marooned

«Three marooned astronauts. Only 55 minutes left to rescue them. While the whole world watches and waits...»
Страна: США
Жанр: фантастика, триллер, драма, приключения
Год выпуска: 1969
Продолжительность: 02:08:56
Бюджет: $8 000 000
Рейтинг MMPA:
Перевод: Профессиональный (многоголосый закадровый) [DVD Classic]
Cубтитры: нет
Оригинальная аудиодорожка: английский
Режиссер: Джон Стёрджес / John Sturges
В ролях: Грегори Пек, Ричард Кренна, Дэвид Джэнссен, Джеймс Франсискус, Джин Хэкмен, Ли Грант, Нэнси Ковак, Мэриетт Хартли, Скотт Брейди, Фрэнк Март
Описание: После завершения миссии в космосе корабль с тремя космонавтами на борту вышел на земную орбиту, чтобы вернуться. Но двигатель дал сбой и командир Джим Пруе, ученый Клайтон Стоун и пилот Базз Ллойд оказались в безвыходном положении в открытом космосе. Чарлз Кейт, шеф космической программы и старший космонавт Тед Догерти составляют невероятный план спасения, а весь мир с волнением ждет…
Доп. информация: Запись с телеканала SONY Movie Channel предоставил . Перевод DVD Classic был взят из релиза, за что спасибо .

Тип релиза: HDTV 720p
Контейнер: TS
Видео: H.264, 1280x720, 59.94 fps, 5931 kbps, 0.10 bit/pixel
Аудио #1: AC3 Dolby Digital, 48 kHz, 384 kbps, 5 ch [Rus]
Аудио #2: AC3 Dolby Digital, 48 kHz, 384 kbps, 2/0 (L,R) ch [Eng]
General
ID : 1 (0x1)
Complete name : Marooned.1969.hdtv.720p.h264-Zombie.Lee.ts
Format : MPEG-TS
File size : 6.35 GiB
Duration : 2h 8mn
Overall bit rate mode : Variable
Overall bit rate : 7 056 Kbps
Maximum Overall bit rate : 35.5 Mbps
Video
ID : 4113 (0x1011)
Menu ID : 1 (0x1)
Format : AVC
Format/Info : Advanced Video Codec
Format profile : Main@L4.0
Format settings, CABAC : Yes
Format settings, ReFrames : 4 frames
Format settings, GOP : M=4, N=32
Codec ID : 27
Duration : 2h 8mn
Bit rate mode : Variable
Bit rate : 5 931 Kbps
Maximum bit rate : 20.0 Mbps
Width : 1 280 pixels
Height : 720 pixels
Display aspect ratio : 16:9
Frame rate : 59.940 fps
Color space : YUV
Chroma subsampling : 4:2:0
Bit depth : 8 bits
Scan type : Progressive
Bits/(Pixel*Frame) : 0.107
Stream size : 5.34 GiB (84%)
Color primaries : BT.709-5, BT.1361, IEC 61966-2-4, SMPTE RP177
Transfer characteristics : BT.709-5, BT.1361
Matrix coefficients : BT.709-5, BT.1361, IEC 61966-2-4 709, SMPTE RP177
Audio #1
ID : 4352 (0x1100)
Menu ID : 1 (0x1)
Format : AC-3
Format/Info : Audio Coding 3
Mode extension : CM (complete main)
Codec ID : 129
Duration : 2h 8mn
Bit rate mode : Constant
Bit rate : 384 Kbps
Channel(s) : 5 channels
Channel positions : Front: L C R, Side: L R
Sampling rate : 48.0 KHz
Bit depth : 16 bits
Compression mode : Lossy
Delay relative to video : 4ms
Stream size : 354 MiB (5%)
Language : Russian
Audio #2
ID : 4353 (0x1101)
Menu ID : 1 (0x1)
Format : AC-3
Format/Info : Audio Coding 3
Mode extension : CM (complete main)
Codec ID : 129
Duration : 2h 8mn
Bit rate mode : Constant
Bit rate : 384 Kbps
Channel(s) : 2 channels
Channel positions : Front: L R
Sampling rate : 48.0 KHz
Bit depth : 16 bits
Compression mode : Lossy
Stream size : 354 MiB (5%)
Language : English



Скачать Отрезанные.от.мира.Потерянные.Marooned.(Джон.Стёрджес.John.Sturges).[1969.г.США.фантастика.триллер.драма.приключения.HDTV.720p].MVO.+.Original.Eng.torrent без регистрации
Золото ЗОЛОТАЯ РАЗДАЧА! СКАЧАННОЕ НЕ ЗАСЧИТЫВАЕТСЯ! Золото
Дата: Зарегистрирован   [ Тип: внутренний ] Как тут cкачать?
MAGNET ссылка
MAGNET ссылка


Скачать .torrent

16 KB

Статус: проверено DHT
Скачан: торрент - 141 раз, раздача полностью - 0 раз
Размер: 6,35 GB
Оценка:  - (Голосов: 0)
Поблагодарили: 1
Поделиться ссылкой на эту раздачу с друзьями:
В контактеFacebookОдноклассникиTwitterLivejournalМой МирLiveinternet
 

 
Показать сообщения:    


Вы не можете начинать темы
Вы не можете отвечать на сообщения
Вы не можете редактировать свои сообщения
Вы не можете удалять свои сообщения
Вы не можете голосовать в опросах
Вы не можете прикреплять файлы к сообщениям
Вы можете скачивать файлы