Loading...
Error

Скачать Служители закона / U.S. Marshals (Стюарт Бейрд / Stuart Baird) [1998, Детектив, Боевик, криминал, HDTV] [DUB] торрент без регистрации

Статистика раздачи
Размер:  9,9 GB   |    Скачан:  152 раза
Сидов:  1  [  0 KB/s  ]  
 
 
 
Автор Сообщение

Jenek

[] 

Служители закона / U.S. Marshals

«Полицейский, которого не остановить, возвращается. Но на этот раз он преследует не только беглеца.»


Страна: США
Жанр: Детектив, Боевик, криминал
Год выпуска: 1998
Продолжительность: 02:05:40
Перевод 1: Профессиональный (дублированный)
Перевод 2: Профессиональный (многоголосый закадровый) НТВ
Перевод 3: Авторский (одноголосый, закадровый) Гаврилов
Перевод 4: Авторский (одноголосый, закадровый) Кашкин
Cубтитры: русские, английские
Оригинальная аудиодорожка: английский
Режиссер: Стюарт Бейрд / Stuart Baird
Сценарий: Рой Хаггинс, Джон Пог
Продюсер: Энн Копельсон, Арнольд Копельсон, Кейт Бариш, ...
Оператор: Анджей Бартковяк
Композитор: Джерри Голдсмит
Художник: Мехер Ахмад, Брюс Алан Миллер, Марк Вортингтон, ...
Монтаж: Терри Роулингс
В ролях:Томми Ли Джонс, Уэсли Снайпс, Роберт Дауни мл., Джо Пантольяно, Дэниэл Робак, Том Вуд, ЛаТаня Ричардсон, Ирен Жакоб, Кейт Неллиган, Патрик Мэлахайд.
Описание: Самолет, перевозивший заключенных, терпит аварию и совершает вынужденную посадку. Воспользовавшись ситуацией, из-под конвоя бежит особо опасный арестант — бывший секретный агент, обвиненный в убийстве двух других агентов. Но не только полиция и группа Джерарда идут по его следу; беглец представляет интерес и кое для кого еще. Он слишком много знает, и этот кое-кто желал бы его убрать…
бюджет $60 000 000
сборы в США $57 167 405
сборы в мире + $45 200 000 = $102 367 405
Сэмпл: скачать 1:30 мин 177.5 МБ
Качество видео: HDTV 1080i
Формат видео: MKV
Перевод Кашкина взят синхронизирован с английской дорожкой
Перевод НТВ взят синхронизирован с английской дорогои
Видео: AVC (x264) 1920х1080i@25 fps ~10,1 MBit/s by satnews
Аудио 1: Дубляж AC3 384 kBit/s 48 kHz 5.1 DD
Аудио 2: MVO HTB+ AC3 192 kBit/s 48 kHz Stereo
Аудио 3: Гаврилов AC3 384 kBit/s 48 kHz 5.1 DD
Аудио 4: Кашкин AC3 192 kBit/s 48 kHz Stereo
Аудио 5: English AC3 384 kBit/s 48 kHz 5.1 DD
General
Unique ID : 227785783482392180495535714191476680675 (0xAB5DF235AB9C7F4EAE93D4984EF667E3)
Complete name : F:\FILMS\U.S. Marshals.mkv
Format : Matroska
Format version : Version 2
File size : 9.90 GiB
Duration : 2h 5mn
Overall bit rate mode : Variable
Overall bit rate : 11.3 Mbps
Encoded date : UTC 2012-04-22 08:22:31
Writing application : mkvmerge v3.3.0 ('Language') строится на Apr 12 2010 10:07:49
Writing library : libebml v0.8.0 + libmatroska v0.9.0
Video
ID : 1
Format : AVC
Format/Info : Advanced Video Codec
Format profile : Main@L4.0
Format settings, CABAC : Yes
Format settings, ReFrames : 4 frames
Muxing mode : Container profile=Unknown@0.0
Codec ID : V_MPEG4/ISO/AVC
Duration : 2h 5mn
Bit rate mode : Variable
Bit rate : 9 515 Kbps
Maximum bit rate : 40.0 Mbps
Width : 1 920 pixels
Height : 1 080 pixels
Display aspect ratio : 16:9
Frame rate : 25.000 fps
Color space : YUV
Chroma subsampling : 4:2:0
Bit depth : 8 bits
Scan type : Interlaced
Scan order : Top Field First
Bits/(Pixel*Frame) : 0.184
Stream size : 8.35 GiB (84%)
Title : DVB.HDTV.1080i.skyMOVIESHD.[satnews] AVC ~10.1 MBit/s
Language : English
Color primaries : BT.709-5, BT.1361, IEC 61966-2-4, SMPTE RP177
Transfer characteristics : BT.709-5, BT.1361
Matrix coefficients : BT.709-5, BT.1361, IEC 61966-2-4 709, SMPTE RP177
Audio #1
ID : 2
Format : AC-3
Format/Info : Audio Coding 3
Mode extension : CM (complete main)
Codec ID : A_AC3
Duration : 2h 5mn
Bit rate mode : Constant
Bit rate : 384 Kbps
Channel(s) : 6 channels
Channel positions : Front: L C R, Side: L R, LFE
Sampling rate : 48.0 KHz
Bit depth : 16 bits
Compression mode : Lossy
Stream size : 345 MiB (3%)
Title : Дубляж AC3 384 kBit/s 48 kHz 5.1 DD
Language : Russian
Audio #2
ID : 3
Format : AC-3
Format/Info : Audio Coding 3
Mode extension : CM (complete main)
Codec ID : A_AC3
Duration : 2h 5mn
Bit rate mode : Constant
Bit rate : 192 Kbps
Channel(s) : 2 channels
Channel positions : Front: L R
Sampling rate : 48.0 KHz
Bit depth : 16 bits
Compression mode : Lossy
Stream size : 173 MiB (2%)
Title : MVO HTB+ AC3 192 kBit/s 48 kHz Stereo
Language : Russian
Audio #3
ID : 4
Format : AC-3
Format/Info : Audio Coding 3
Mode extension : CM (complete main)
Codec ID : A_AC3
Duration : 2h 5mn
Bit rate mode : Constant
Bit rate : 384 Kbps
Channel(s) : 6 channels
Channel positions : Front: L C R, Side: L R, LFE
Sampling rate : 48.0 KHz
Bit depth : 16 bits
Compression mode : Lossy
Stream size : 345 MiB (3%)
Title : Гаврилов AC3 384 kBit/s 48 kHz 5.1 DD
Language : Russian
Audio #4
ID : 5
Format : AC-3
Format/Info : Audio Coding 3
Mode extension : CM (complete main)
Codec ID : A_AC3
Duration : 2h 5mn
Bit rate mode : Constant
Bit rate : 192 Kbps
Channel(s) : 2 channels
Channel positions : Front: L R
Sampling rate : 48.0 KHz
Bit depth : 16 bits
Compression mode : Lossy
Stream size : 173 MiB (2%)
Title : Кашкин AC3 192 kBit/s 48 kHz Stereo
Language : Russian
Audio #5
ID : 6
Format : AC-3
Format/Info : Audio Coding 3
Mode extension : CM (complete main)
Codec ID : A_AC3
Duration : 2h 5mn
Bit rate mode : Constant
Bit rate : 384 Kbps
Channel(s) : 6 channels
Channel positions : Front: L C R, Side: L R, LFE
Sampling rate : 48.0 KHz
Bit depth : 16 bits
Compression mode : Lossy
Stream size : 345 MiB (3%)
Title : English AC3 384 kBit/s 48 kHz 5.1 DD
Language : English
Text #1
ID : 7
Format : UTF-8
Codec ID : S_TEXT/UTF8
Codec ID/Info : UTF-8 Plain Text
Language : Russian
Text #2
ID : 8
Format : UTF-8
Codec ID : S_TEXT/UTF8
Codec ID/Info : UTF-8 Plain Text
Language : English



Скачать Служители.закона.U.S.Marshals.(Стюарт.Бейрд.Stuart.Baird).[1998.Детектив.Боевик.криминал.HDTV].[DUB].torrent без регистрации
Золото ЗОЛОТАЯ РАЗДАЧА! СКАЧАННОЕ НЕ ЗАСЧИТЫВАЕТСЯ! Золото
Дата: Зарегистрирован   [ Тип: внутренний ] Как тут cкачать?
MAGNET ссылка
MAGNET ссылка


Скачать .torrent

25 KB

Статус: проверено DHT
Скачан: торрент - 152 раз, раздача полностью - 3 раз
Размер: 9,9 GB
Оценка:  - (Голосов: 0)
Поблагодарили: 1
Поделиться ссылкой на эту раздачу с друзьями:
В контактеFacebookОдноклассникиTwitterLivejournalМой МирLiveinternet
 

 
Показать сообщения:    


Вы не можете начинать темы
Вы не можете отвечать на сообщения
Вы не можете редактировать свои сообщения
Вы не можете удалять свои сообщения
Вы не можете голосовать в опросах
Вы не можете прикреплять файлы к сообщениям
Вы можете скачивать файлы