Loading...
Error

Скачать Просто секс? / Случайный секс? / Casual Sex? (Женевьева Роберт) [1988, комедия, DVDRip-AVC] [MVO]+[Original] торрент без регистрации

Статистика раздачи
Размер:  1,45 GB   |    Скачан:  128 раз
Сидов:  1  [  0 KB/s  ]  
 
 
 
Автор Сообщение

МихаНЕзатор

[] 

Страна: США
Жанр: комедия
Год выпуска: 1988
Продолжительность: 01:23:36
Перевод: Профессиональный (многоголосый, закадровый) + Оригинальный
Субтитры: английские.
Режиссер: Женевьева Роберт / Genevi?ve Robert
В ролях: Лиа Томпсон (Stacy), Виктория Джексон (Melissa), Стивен Шеллен (Nick), Джерри Ливайн (Jamie), Эндрю Дайс Клэй (Vinny), Мэри Гросс (Ilene), Валери Брейман (Megan), Питер Дворски (Matthew), Дэвид Сарджент (Frankie), Синтия Филлипс (Ann), Дон Вудард (Gary), Дэнни Брин (Dr. Goodman)
Описание: Решив наладить разумные отношения с мужчиной, который не боится взять на себя обязательства, две подруги отправляются на шикарный курорт. Питая большие надежды, Стейси и Мелисса намерены поймать в свои сети Идеального Мужчину. Но, к сожалению, все мужчины, которых они встречают, не хотят думать ни о чем другом, кроме... просто секса.

MPAA: R - Лицам до 17 лет обязательно присутствие взрослого

Качество: DVDRip ( DVD-9 | makc365 )
Контейнер: MKV

Видео: AVC, 720x552 @ 1024x552 (1.855), 2094 kbps, 25 fps, 0.211 bpp
Аудио 1: русский / AC3 / 2.0 / 48 kHz / 192 kbps
Аудио 2: английский / AC3 / 2.0 / 48 kHz / 192 kbps
Навигация по главам: есть

-----------------------------------------------------------------------------

x264 [info]: frame I:1115 Avg QP:18.26 size: 42778
x264 [info]: frame P:56783 Avg QP:21.36 size: 16533
x264 [info]: frame B:67526 Avg QP:23.39 size: 4813

-----------------------------------------------------------------------------

Format : Matroska
Format version : Version 2
File size : 1.45 GiB
Duration : 1h 23mn
Overall bit rate : 2 477 Kbps
Movie name : = Просто секс? / Случайный секс? / Casual Sex? DVDRip by SC Kosmos =
Encoded date : UTC 2013-10-01 14:40:38
Writing application : mkvmerge v5.3.0 ('I could have danced') built on Feb 9 2012 10:38:07
Writing library : libebml v1.2.3 + libmatroska v1.3.0

Video
ID : 1
Format : AVC
Format/Info : Advanced Video Codec
Format profile : High@L4.1
Format settings, CABAC : Yes
Format settings, ReFrames : 10 frames
Codec ID : V_MPEG4/ISO/AVC
Duration : 1h 23mn
Bit rate : 2 094 Kbps
Width : 720 pixels
Height : 552 pixels
Display aspect ratio : 1.855
Frame rate : 25.000 fps
Color space : YUV
Chroma subsampling : 4:2:0
Bit depth : 8 bits
Scan type : Progressive
Bits/(Pixel*Frame) : 0.211
Stream size : 1.19 GiB (83%)
Title : Просто секс? / Случайный секс? / Casual Sex? DVDRip by SC Kosmos
Writing library : x264 core 138 r2358 9e941d1
Encoding settings : cabac=1 / ref=10 / deblock=1:-3:-3 / analyse=0x3:0x113 / me=umh / subme=11 / psy=1 / psy_rd=0.40:0.00 / mixed_ref=1 / me_range=48 / chroma_me=1 / trellis=2 / 8x8dct=1 / cqm=0 / deadzone=21,11 / fast_pskip=0 / chroma_qp_offset=-2 / threads=12 / lookahead_threads=1 / sliced_threads=0 / nr=0 / decimate=1 / interlaced=0 / bluray_compat=0 / constrained_intra=0 / bframes=12 / b_pyramid=2 / b_adapt=1 / b_bias=0 / direct=1 / weightb=1 / open_gop=0 / weightp=2 / keyint=250 / keyint_min=25 / scenecut=40 / intra_refresh=0 / rc_lookahead=40 / rc=2pass / mbtree=0 / bitrate=2094 / ratetol=1.0 / qcomp=0.60 / qpmin=0 / qpmax=69 / qpstep=4 / cplxblur=20.0 / qblur=0.5 / vbv_maxrate=50000 / vbv_bufsize=50000 / nal_hrd=none / ip_ratio=1.40 / pb_ratio=1.30 / aq=1:0.60 / zones=120910,125423,b=0.25
Language : English
Default : Yes
Forced : No

Audio #1
ID : 2
Format : AC-3
Format/Info : Audio Coding 3
Mode extension : CM (complete main)
Codec ID : A_AC3
Duration : 1h 23mn
Bit rate mode : Constant
Bit rate : 192 Kbps
Channel(s) : 2 channels
Channel positions : Front: L R
Sampling rate : 48.0 KHz
Bit depth : 16 bits
Compression mode : Lossy
Stream size : 115 MiB (8%)
Title : MVO
Language : Russian
Default : Yes
Forced : No

Audio #2
ID : 3
Format : AC-3
Format/Info : Audio Coding 3
Format profile : Dolby Digital
Mode extension : CM (complete main)
Codec ID : A_AC3
Duration : 1h 23mn
Bit rate mode : Constant
Bit rate : 192 Kbps
Channel(s) : 2 channels
Channel positions : Front: L R
Sampling rate : 48.0 KHz
Bit depth : 16 bits
Compression mode : Lossy
Stream size : 115 MiB (8%)
Language : English
Default : No
Forced : No

Text
ID : 4
Format : UTF-8
Codec ID : S_TEXT/UTF8
Codec ID/Info : UTF-8 Plain Text
Language : English
Default : Yes
Forced : No

Menu
00:00:00.000 : en:Chapter 01
00:01:44.760 : en:Chapter 02
00:07:11.000 : en:Chapter 03
00:10:21.840 : en:Chapter 04
00:15:41.840 : en:Chapter 05
00:24:09.400 : en:Chapter 06
00:30:13.480 : en:Chapter 07
00:35:30.640 : en:Chapter 08
00:42:43.880 : en:Chapter 09
00:48:23.200 : en:Chapter 10
00:50:50.880 : en:Chapter 11
00:51:23.160 : en:Chapter 12
00:59:03.480 : en:Chapter 13
01:03:14.560 : en:Chapter 14
01:09:05.960 : en:Chapter 15
01:13:09.440 : en:Chapter 16
01:15:15.720 : en:Chapter 17
01:18:57.400 : en:Chapter 18
01:20:30.080 : en:Chapter 19




Скачать Просто.секс?.Случайный.секс?.Casual.Sex?.(Женевьева.Роберт).[1988.комедия.DVDRip-AVC].[MVO]+[Original].torrent без регистрации
Золото ЗОЛОТАЯ РАЗДАЧА! СКАЧАННОЕ НЕ ЗАСЧИТЫВАЕТСЯ! Золото
Дата: Зарегистрирован   [ Тип: внутренний ] Как тут cкачать?
MAGNET ссылка
MAGNET ссылка


Скачать .torrent

15 KB

Статус: проверено DHT
Скачан: торрент - 128 раз, раздача полностью - 43 раз
Размер: 1,45 GB
Оценка:  - (Голосов: 0)
Поблагодарили: 1
Поделиться ссылкой на эту раздачу с друзьями:
В контактеFacebookОдноклассникиTwitterLivejournalМой МирLiveinternet
 

 
Показать сообщения:    


Вы не можете начинать темы
Вы не можете отвечать на сообщения
Вы не можете редактировать свои сообщения
Вы не можете удалять свои сообщения
Вы не можете голосовать в опросах
Вы не можете прикреплять файлы к сообщениям
Вы можете скачивать файлы