Loading...
Error

Скачать Самоволка / Full Contact / Lionheart (Шелдон Леттич) [1990, боевик, драма, спорт, DVDRip] [AVO] торрент без регистрации

Статистика раздачи
Размер:  701 MB   |    Скачан:  5379 раз
Сидов:  1  [  0 KB/s  ]  

 
 
 
Автор Сообщение

Marsianka

[] 

Информация о фильме
Название: Самоволка
Оригинальное название: Full Contact / Lionheart
Год выхода: 1990
Жанр: боевик, драма, спорт
Режиссер: Шелдон Леттич
В ролях: Жан-Клод Ван Дамм, Харрисон Пейдж, Дебора Реннард, Лиза Пеликан, Эшли Джонсон, Брайан Томпсон, Войо Горич, Мишель Кисси, Джордж МакДэниэл, Эрик Карсон

О фильме:
Узнав, что его брат в Лос-Анджелесе серьезно ранен, Лайон Голтье дезертирует из французского иностранного легиона, базирующегося в отдаленном районе Северной Африки.

Скрываясь от двух боевиков-легионеров, которым дан приказ вернуть его любой ценой, Лайон против своего желания становится участником незаконных боев современных гладиаторов, дерущихся голыми руками для развлечения богатых. Ему нужны деньги, чтобы помочь семье своего брата.



Страна: США
Студия: Imperial Entertainment Corporation, Guild, Sunil, Wrong Bet Productions
Продолжительность: 01:43:43
Перевод: Авторский | Ранний перевод Гаврилова Андрея
Это полная версия фильма, здесь присутствуют все вырезанные сцены которые были удалены в других версиях этого фильма.
Название фильма в титрах : "Full Contact" (вероятно с таким названием его показывали в Франции). DVDRip скачан из осла, дорожка с французским дубляжом была заменена на ранний перевод Андрея Гаврилова с VHS.
Большое Спасибо Real Bad MF за предоставленный перевод с VHS.
Файл
Кодек: DivX 5
Качество: DVDRip
Видео: 720x368 (1.957), 25.000 fps, 827 kbps
Звук: MP3, 105 kbps, 2/0 (L,R) ch, 48.0 kHz
Субтитры: нет

Автор рипа: suricat
General
Complete name : Lionheart (Full version 1990).avi
Format : AVI
Format/Info : Audio Video Interleave
File size : 701 MiB
Duration : 1h 43mn
Overall bit rate mode : Variable
Overall bit rate : 945 Kbps
Writing application : VirtualDubModRus 1.5.10.2 (build 2542/release)
Writing library : VirtualDubMod build 2542/release

Video
ID : 0
Format : MPEG-4 Visual
Format settings, BVOP : Yes
Format settings, QPel : No
Format settings, GMC : No warppoints
Format settings, Matrix : Default (H.263)
Codec ID : DX50
Codec ID/Hint : DivX 5
Duration : 1h 43mn
Bit rate : 827 Kbps
Width : 720 pixels
Height : 368 pixels
Display aspect ratio : 1.957
Frame rate : 25.000 fps
Color space : YUV
Chroma subsampling : 4:2:0
Bit depth : 8 bits
Scan type : Progressive
Compression mode : Lossy
Bits/(Pixel*Frame) : 0.125
Stream size : 613 MiB (88%)
Writing library : DivX 5.0.2 (UTC 2002-05-16)

Audio
ID : 1
Format : MPEG Audio
Format version : Version 1
Format profile : Layer 3
Mode : Joint stereo
Mode extension : MS Stereo
Codec ID : 55
Codec ID/Hint : MP3
Duration : 1h 43mn
Bit rate mode : Variable
Bit rate : 105 Kbps
Channel(s) : 2 channels
Sampling rate : 48.0 KHz
Compression mode : Lossy
Stream size : 77.9 MiB (11%)
Alignment : Aligned on interleaves
Interleave, duration : 24 ms (0.60 video frame)
Interleave, preload duration : 409 ms




Скачать Самоволка.Full.Contact.Lionheart.(Шелдон.Леттич).[1990.боевик.драма.спорт.DVDRip].[AVO].torrent без регистрации
Золото ЗОЛОТАЯ РАЗДАЧА! СКАЧАННОЕ НЕ ЗАСЧИТЫВАЕТСЯ! Золото
Дата: Зарегистрирован   [ Тип: внутренний ] Как тут cкачать?
MAGNET ссылка
MAGNET ссылка


Скачать .torrent

14 KB

Статус: проверено DHT
Скачан: торрент - 5379 раз, раздача полностью - 3 раз
Размер: 701 MB
Оценка:  - (Голосов: 0)
Поблагодарили: 0
Поделиться ссылкой на эту раздачу с друзьями:
В контактеFacebookОдноклассникиTwitterLivejournalМой МирLiveinternet
 

 
Показать сообщения:    


Вы не можете начинать темы
Вы не можете отвечать на сообщения
Вы не можете редактировать свои сообщения
Вы не можете удалять свои сообщения
Вы не можете голосовать в опросах
Вы не можете прикреплять файлы к сообщениям
Вы можете скачивать файлы