Loading...
Error

Скачать Риддик / Riddick (Дэвид Туи / David Twohy) [2013, фантастика, боевик, триллер, BDRip-AVC] [720p] [DUB] [Лицензия iTunes] [R.G. GoldenShara] торрент без регистрации

Статистика раздачи
Размер:  2,18 GB   |    Скачан:  422 раза

Полного источника не было: 5 месяцев 25 дней

 
 
 
Автор Сообщение

Bullit

[] 



Риддик / Riddick




Год выпуска: 2013
Страна: США, Великобритания
Слоган: «Лучший способ отомстить - остаться в живых»
Жанр: фантастика, боевик, триллер
Продолжительность: 01:58:40
Перевод: Профессиональный (полное дублирование) Лицензия iTunes
Режиссер: Дэвид Туи / David Twohy
Сценарий: Дэвид Туи / David Twohy, Джим Уит / Jim Wheat, Кен Уит / Ken Wheat
Продюсер: Вин Дизель / Vin Diesel, Тед Филд / Ted Field, Камилль Браун / Camille Brown, Майк Дрэйк / Mike Drake, Джимми Финкл / Jimmy Finkl
Оператор: Дэвид Эггби / David Eggby
Композитор: Грэм Ревелл / Graeme Revell
В ролях:
Вин Дизель (Riddick), Хорди Молья (Santana), Мэтью Нэйбл (Boss Johns), Кэти Сакхофф (Dahl), Дэйв Батиста (Diaz), Букем Вудбайн (Moss), Рауль Трухильо (Lockspur), Конрад Пла (Vargas), Дэнни Бланко (Falco), Карл Урбан (Vaako), Ной Дэнби (Nunez), Нил Напье (Rubio)
Дублёры:
Сергей Чонишвили (Riddick), Александр Коврижных (Santana), Денис Беспалый (Boss Johns), Инна Королёва (Dahl), Сергей Чихачев (Diaz), Артем Маликов (Moss), Пётр Иващенко (Lockspur), Олег Щербинин (Falco), Юрий Брежнев (Vaako), Олег Новиков (Luna), Александр Новиков (Krone), Татьяна Шарко (Santana's Prisoner)
Бюджет: $38 000 000
Сборы в США: $42 025 135
Сборы в России: $10 246 070
Сборы в мире: $98 337 295
Мировая премьера: 4 сентября 2013
Релиз от:

Описание:
Преданный своими и брошенный умирать на пустынной планете, Риддик сражается с хищниками за жизнь и становится сильнее и опаснее себя прежнего. Открывшие на него охоту галактические наемники оказываются пешками в грандиозном плане отмщения. С врагами, возникающими на его пути тогда, когда это нужно самому Риддику, он начинает поход во имя мести, чтобы в конечном счете вернуться на родную Фурию и спасти ее от уничтожения.

Рейтинг

MPAA: R - Лицам до 17 лет обязательно присутствие взрослого
Качество: BDRip-AVC (720p)
Формат: MKV
Видео: AVC;1280x544 (2.35:1);2242 Kbps;23,976 fps;0,134 bpp
Аудио №1: русский;AC3;384 Kbps;CBR;6 ch;16 bit

Субтитры №1: русские
Субтитры №2: английские

Format : Matroska
Format version : Version 4 / Version 2
File size : 2.18 GiB
Duration : 1h 58mn
Overall bit rate : 2 627 Kbps
Movie name : -=HANSMER=-
Encoded date : UTC 2013-12-26 12:10:10
Writing application : mkvmerge v6.6.0 ('The Edge Of The In Between') built on Dec 1 2013 17:55:00
Writing library : libebml v1.3.0 + libmatroska v1.4.1

Video
ID : 1
Format : AVC
Format/Info : Advanced Video Codec
Format profile : High@L3.1
Format settings, CABAC : Yes
Format settings, ReFrames : 4 frames
Codec ID : V_MPEG4/ISO/AVC
Duration : 1h 58mn
Bit rate : 2 242 Kbps
Width : 1 280 pixels
Height : 544 pixels
Display aspect ratio : 2.35:1
Frame rate mode : Constant
Frame rate : 23.976 fps
Color space : YUV
Chroma subsampling : 4:2:0
Bit depth : 8 bits
Scan type : Progressive
Bits/(Pixel*Frame) : 0.134
Stream size : 1.82 GiB (83%)
Writing library : x264 core 138 r2358 9e941d1
Encoding settings : cabac=1 / ref=4 / deblock=1:-3:-3 / analyse=0x3:0x133 / me=umh / subme=11 / psy=1 / psy_rd=1.00:0.00 / mixed_ref=1 / me_range=32 / chroma_me=1 / trellis=2 / 8x8dct=1 / cqm=0 / deadzone=21,11 / fast_pskip=0 / chroma_qp_offset=-4 / threads=18 / lookahead_threads=3 / sliced_threads=0 / nr=0 / decimate=0 / interlaced=0 / bluray_compat=0 / constrained_intra=0 / bframes=8 / b_pyramid=2 / b_adapt=2 / b_bias=0 / direct=3 / weightb=1 / open_gop=0 / weightp=2 / keyint=230 / keyint_min=22 / scenecut=40 / intra_refresh=0 / rc_lookahead=60 / rc=2pass / mbtree=1 / bitrate=2242 / ratetol=1.0 / qcomp=0.60 / qpmin=0 / qpmax=69 / qpstep=4 / cplxblur=20.0 / qblur=0.5 / ip_ratio=1.40 / aq=1:1.00
Language : English
Default : Yes
Forced : No

Audio
ID : 2
Format : AC-3
Format/Info : Audio Coding 3
Mode extension : CM (complete main)
Format settings, Endianness : Big
Codec ID : A_AC3
Duration : 1h 58mn
Bit rate mode : Constant
Bit rate : 384 Kbps
Channel count : 6 channels
Channel positions : Front: L C R, Side: L R, LFE
Sampling rate : 48.0 KHz
Bit depth : 16 bits
Compression mode : Lossy
Stream size : 326 MiB (15%)
Title : DUB
Language : Russian
Default : No
Forced : No

Text #1
ID : 3
Format : UTF-8
Codec ID : S_TEXT/UTF8
Codec ID/Info : UTF-8 Plain Text
Language : Russian
Default : No
Forced : No

Text #2
ID : 4
Format : UTF-8
Codec ID : S_TEXT/UTF8
Codec ID/Info : UTF-8 Plain Text
Language : English
Default : No
Forced : No

Menu
00:00:00.000 : en:
00:08:22.668 : en:
00:19:44.600 : en:
00:30:00.799 : en:
00:42:49.316 : en:
00:51:07.814 : en:
01:03:07.950 : en:
01:11:46.844 : en:
01:21:01.857 : en:
01:33:41.324 : en:
01:44:40.774 : en:
01:54:50.925 : en:

  • Производство фильма оказалось под угрозой срыва, когда была задержка в финансировании. В итоге Вин Дизель взял на себя финансирование фильма до тех пор, пока не разрешилась проблема с банковской ссудой.
  • Кери Хилсон проходила прослушивание на роль Дали. Роль в итоге отошла Кэти Сакхофф, но Дэвид Туи был настолько впечатлен харизмой Хилсон, что написал небольшую роль специально для нее.
  • Первоначальное название сценария было - «Хроники Риддика: Преследование мертвеца» (The Chronicles of Riddick: Dead Man Stalking).
  • Вин Дизель согласился сыграть эпизодическую роль в фильме «Тройной форсаж: Токийский Дрифт» (2006) в обмен на права на франшизу «Риддика» от Universal Pictures. Это позволило ему заниматься производством «Риддика» самостоятельно.
  • Персонаж Мэтью Нэйбла - Босс Джонс - это отец Уильяма Дж. Джонса, которого в фильме «Черная дыра» (1999) сыграл Коул Хаузер. В реальной жизни Нэйбл всего на три года старше Хаузера.
  • еще 2 факта
  • В конце фильма, когда Даль спускается с корабля, чтобы привязать Риддика к веревке, идет дождь. Однако Даль и Риддик полностью сухие. Даже волосы Дали свободно развеваются на ветру.





Скачать Риддик.Riddick.(Дэвид.Туи.David.Twohy).[2013.фантастика.боевик.триллер.BDRip-AVC].[720p].[DUB].[Лицензия.iTunes].[R.G.GoldenShara].torrent без регистрации
Золото ЗОЛОТАЯ РАЗДАЧА! СКАЧАННОЕ НЕ ЗАСЧИТЫВАЕТСЯ! Золото
Дата: Зарегистрирован   [ Тип: внутренний ] Как тут cкачать?
MAGNET ссылка
MAGNET ссылка


Скачать .torrent

11 KB

Статус: проверено
Скачан: торрент - 422 раз, раздача полностью - 484 раз
Размер: 2,18 GB
Оценка:  5 (Голосов: 13)
Поблагодарили: 30
Поделиться ссылкой на эту раздачу с друзьями:
В контактеFacebookОдноклассникиTwitterLivejournalМой МирLiveinternet
 

 

Cool.Vladiks

[] 

ay ay ay ay
 

donk333

[] 

И я о том же , фильм зачётный ab
 

do070691kas

[] 

Добрый вечер помогите пожалуйста скачать вашу раздачу /viewtopic.php?p=464128
 

7Жнец7

[] 

Мало Kbps для Риддика.
Обнови пожалуйста.
Хотя бы 3000 Kbps.
Заранее Спасибо!
 
Показать сообщения:    


Вы не можете начинать темы
Вы не можете отвечать на сообщения
Вы не можете редактировать свои сообщения
Вы не можете удалять свои сообщения
Вы не можете голосовать в опросах
Вы не можете прикреплять файлы к сообщениям
Вы можете скачивать файлы