Loading...
Error

Скачать Терминатор / The Terminator (Джеймс Кэмерон / James Cameron) [1984, фантастика, боевик, BDRip] [720p] [DUB] [R.G. GoldenShara] торрент без регистрации

Статистика раздачи
Размер:  6,05 GB   |    Скачан:  89 раз

Полного источника не было: 28 дней

 
 
 
Автор Сообщение

Bullit

[] 



Терминатор / The Terminator




Год выпуска: 1984
Страна: Великобритания, США
Слоган: «Твое будущее в его руках»
Жанр: фантастика, боевик

Продолжительность: 01:47:03
Перевод: Профессиональный (полное дублирование)
Режиссер: Джеймс Кэмерон / James Cameron
В ролях:
Арнольд Шварценеггер (Terminator), Майкл Бин (Kyle Reese), Линда Хэмилтон (Sarah Connor), Пол Уинфилд (Lieutenant Ed Traxler), Лэнс Хенриксен (Detective Hal Vukovich), Рик Россович (Matt Buchanan), Бесс Мотта (Ginger Ventura), Эрл Боэн (Dr. Peter Silberman), Дик Миллер (Pawn Shop Clerk), Шон Шеппс (Nancy), Брюс Кернер (Desk Sergeant), Франко Колумбу (Future Terminator)
Дублёры:
Евгений Паперный (Terminator), Александр Груздев (Terminator (дубляж для Blu-Ray)), Владислав Пупков (Kyle Reese), Сергей Быстрицкий (Kyle Reese (дубляж для Blu-Ray)), Людмила Логийко (Sarah Connor), Елена Чебатуркина (Sarah Connor (дубляж для Blu-Ray)), Виталий Дорошенко (Lieutenant Ed Traxler), Олег Куценко (Lieutenant Ed Traxler (дубляж для Blu-Ray)), Игорь Стариков (Detective Hal Vukovich), Владимир Антоник (Detective Hal Vukovich (дубляж для Blu-Ray)), Мария Овчинникова (Ginger Ventura (дубляж для Blu-Ray); Nancy (дубляж для Blu-Ray)), Александр Котов (Dr. Peter Silberman (дубляж для Blu-Ray))
Бюджет: $6 400 000
Сборы в США: $38 371 200
Сборы в мире: $78 371 200
Мировая премьера: 26 октября 1984
Релиз на DVD: 28 августа 2008
Релиз на Blu-ray: 4 октября 2012


Описание:
История противостояния солдата Кайла Риза и киборга-терминатора, прибывших в 1984-й год из пост-апокалиптического будущего, где миром правят машины-убийцы, а человечество находится на грани вымирания. Цель киборга: убить девушку по имени Сара Коннор, чей ещё нерождённый сын к 2029 году выиграет войну человечества с машинами. Цель Риза: спасти Сару и остановить Терминатора любой ценой.

Рейтинг

MPAA: R - Лицам до 17 лет обязательно присутствие взрослого
Качество: BDRip (720p)
Формат: MKV
Видео: 1280x696 (1.85:1), 7450 kbps, 23.976 fps
Аудио: Русский (AC-3, 6ch, 640 kbps)
x264 [info]: frame I:1065 Avg QP:16.97 size:142874
x264 [info]: frame P:34356 Avg QP:18.06 size: 71221
x264 [info]: frame B:118588 Avg QP:21.05 size: 28526
x264 [info]: consecutive B-frames: 2.2% 2.9% 10.4% 16.7% 20.0% 40.7% 4.3% 1.6% 1.1%
x264 [total]: encoded 154009 frames, 4.91 fps, 7449.99 kb/s
General
Unique ID : 228736289692546927924956707812162486806 (0xAC1501C8B33BC2149D924C87C6194216)
Complete name : F:\ФИЛЬМЫ\ТЕРМИНАТОР\Терминатор.1984.x264.BDRip.720p.DUB.mkv
Format : Matroska
Format version : Version 4 / Version 2
File size : 6.05 GiB
Duration : 1 h 47 min
Overall bit rate : 8 092 kb/s
Movie name : Терминатор / The Terminator (1984) - #LORDKILL#
Encoded date : UTC 2017-06-16 16:20:41
Writing application : mkvmerge v9.9.0 ('Pick Up') 64bit
Writing library : libebml v1.3.4 + libmatroska v1.4.5

Video
ID : 1
Format : AVC
Format/Info : Advanced Video Codec
Format profile : High@L4.1
Format settings, CABAC : Yes
Format settings, ReFrames : 9 frames
Codec ID : V_MPEG4/ISO/AVC
Duration : 1 h 47 min
Bit rate : 7 450 kb/s
Width : 1 280 pixels
Height : 696 pixels
Display aspect ratio : 1.85:1
Frame rate mode : Constant
Frame rate : 23.976 (24000/1001) FPS
Color space : YUV
Chroma subsampling : 4:2:0
Bit depth : 8 bits
Scan type : Progressive
Bits/(Pixel*Frame) : 0.349
Stream size : 5.57 GiB (92%)
Writing library : x264 core 146 r2538 121396c
Encoding settings : cabac=1 / ref=9 / deblock=1:-3:-3 / analyse=0x3:0x113 / me=umh / subme=11 / psy=1 / psy_rd=1.00:0.10 / mixed_ref=1 / me_range=32 / chroma_me=1 / trellis=2 / 8x8dct=1 / cqm=0 / deadzone=21,11 / fast_pskip=0 / chroma_qp_offset=-3 / threads=12 / lookahead_threads=2 / sliced_threads=0 / nr=0 / decimate=1 / interlaced=0 / bluray_compat=0 / constrained_intra=0 / bframes=8 / b_pyramid=2 / b_adapt=2 / b_bias=0 / direct=1 / weightb=1 / open_gop=0 / weightp=2 / keyint=240 / keyint_min=23 / scenecut=40 / intra_refresh=0 / rc=crf / mbtree=0 / crf=19.0 / qcomp=0.70 / qpmin=0 / qpmax=69 / qpstep=4 / ip_ratio=1.40 / pb_ratio=1.30 / aq=1:1.00
Default : Yes
Forced : No

Audio
ID : 2
Format : AC-3
Format/Info : Audio Coding 3
Mode extension : CM (complete main)
Format settings, Endianness : Big
Codec ID : A_AC3
Duration : 1 h 47 min
Bit rate mode : Constant
Bit rate : 640 kb/s
Channel(s) : 6 channels
Channel positions : Front: L C R, Side: L R, LFE
Sampling rate : 48.0 kHz
Frame rate : 31.250 FPS (1536 spf)
Bit depth : 16 bits
Compression mode : Lossy
Stream size : 490 MiB (8%)
Title : Дубляж
Language : Russian
Default : Yes
Forced : No

Text #1
ID : 3
Format : UTF-8
Codec ID : S_TEXT/UTF8
Codec ID/Info : UTF-8 Plain Text
Duration : 1 h 43 min
Bit rate : 0 b/s
Count of elements : 20
Stream size : 723 Bytes (0%)
Title : Forced
Language : Russian
Default : Yes
Forced : Yes

Text #2
ID : 4
Format : UTF-8
Codec ID : S_TEXT/UTF8
Codec ID/Info : UTF-8 Plain Text
Duration : 1 h 46 min
Bit rate : 44 b/s
Count of elements : 594
Stream size : 35.0 KiB (0%)
Title : Full
Language : Russian
Default : No
Forced : No

Text #3
ID : 5
Format : UTF-8
Codec ID : S_TEXT/UTF8
Codec ID/Info : UTF-8 Plain Text
Duration : 1 h 38 min
Bit rate : 27 b/s
Count of elements : 561
Stream size : 20.0 KiB (0%)
Title : Full
Language : English
Default : No
Forced : No

Menu
00:00:00.000 : :Chapter 1
00:03:32.253 : :Chapter 2
00:05:18.151 : :Chapter 3
00:06:31.015 : :Chapter 4
00:11:38.322 : :Chapter 5
00:13:45.324 : :Chapter 6
00:15:11.827 : :Chapter 7
00:20:44.618 : :Chapter 8
00:22:49.618 : :Chapter 9
00:29:49.787 : :Chapter 10
00:33:15.034 : :Chapter 11
00:38:47.116 : :Chapter 12
00:41:25.191 : :Chapter 13
00:47:46.488 : :Chapter 14
00:50:39.995 : :Chapter 15
00:54:41.569 : :Chapter 16
00:59:04.916 : :Chapter 17
01:03:53.538 : :Chapter 18
01:09:37.548 : :Chapter 19
01:14:08.986 : :Chapter 20
01:15:00.078 : :Chapter 21
01:17:18.800 : :Chapter 22
01:18:30.372 : :Chapter 23
01:23:00.892 : :Chapter 24
01:26:24.721 : :Chapter 25
01:30:22.583 : :Chapter 26
01:32:19.367 : :Chapter 27
01:35:52.121 : :Chapter 28
01:39:53.862 : :Chapter 29
01:40:18.721 : :Chapter 30
01:40:49.334 : :Chapter 31
01:43:12.895 : :Chapter 32
01:47:18.557 : :





Скачать Терминатор.The.Terminator.(Джеймс.Кэмерон.James.Cameron).[1984.фантастика.боевик.BDRip].[720p].[DUB].[R.G.GoldenShara].torrent без регистрации
Золото ЗОЛОТАЯ РАЗДАЧА! СКАЧАННОЕ НЕ ЗАСЧИТЫВАЕТСЯ! Золото
Дата: Зарегистрирован   [ Тип: внутренний ] Как тут cкачать?
MAGNET ссылка
MAGNET ссылка


Скачать .torrent

16 KB

Статус: проверено
Скачан: торрент - 89 раз, раздача полностью - 38 раз
Размер: 6,05 GB
Оценка:  5 (Голосов: 1)
Поблагодарили: 8
Поделиться ссылкой на эту раздачу с друзьями:
В контактеFacebookОдноклассникиTwitterLivejournalМой МирLiveinternet
 

 

pashko1990

[] 

Классный подарок, спасибо большое ay az
 

TBD

[] 

i'll be back- Я вернусь позже! Дальше я смотреть не стал.
 

deacon104

[] 

Ещё один испорченный релиз!!! ac
 

pashko1990

[] 

deacon104 писал(а):

Ещё один испорченный релиз!!! ac
Это почему?
 

topalov

[] 

На айфоне не показывает. ag
 

0bits

[] 

А можно кого-нибудь на раздачу хоть на денек?
 

DEN-RDN

[] 

Встаньте на раздачу пожалуйста
 

0bits

[] 

Bullit
Встаньте на эту раздачу на несколько часиков хотя бы... Очень бы хотелось фильм в этом качестве! )) Заранее говорим все Вам спасибо!
 

LORDKILL

[] 

Рип полностью переделан! Приятного просмотра!
 
Показать сообщения:    


Вы не можете начинать темы
Вы не можете отвечать на сообщения
Вы не можете редактировать свои сообщения
Вы не можете удалять свои сообщения
Вы не можете голосовать в опросах
Вы не можете прикреплять файлы к сообщениям
Вы можете скачивать файлы