Loading...
Error

Скачать Вилби Великолепный / Wilby Wonderful (Дэниэл МакАйвор) [2004, черная комедия, DVDRip-AVC] [MVO] торрент без регистрации

Статистика раздачи
Размер:  2,09 GB   |    Скачан:  123 раза
Сидов:  1  [  0 KB/s  ]  
 
 
 
Автор Сообщение

Marsianka

[] 

Информация о фильме
Название: Вилби Великолепный
Оригинальное название: Wilby Wonderful
Год выхода: 2004
Жанр: черная комедия
Режиссер: Дэниэл МакАйвор / Daniel MacIvor
В ролях: Мори Чайкин /Maury Chaykin/, Сандра О /Sandra Oh/, Джеймс Эллоди /James Allodi/, Ребекка Дженкинс /Rebecca Jenkins/,Пол Гросс /Paul Gross/, Эллен Пэйж /Ellen Page/

О фильме:
"Черная" комедия о забавных происшествиях на острове Уилби.
Риэлторша Карол Френч пытается продать мэру Бренту Фишеру домик своей бывшей свекрови, и в процессе продажи крутит с ним роман. Ее муж Бадди тоже не теряет времени даром и влюбляется в Сандру, недавно приехавшую в их город. Они даже не подозревают, что их дети тоже неравнодушны друг к другу, что приводит к очень пикантным ситуациям...



Страна: Канада
Студия: Da Da Kamera, Palpable Productions, Telefilm
Продолжительность: 01:39:17.035
Перевод: Профессиональный (многоголосый, закадровый)

Файл
Кодек: h.264
Качество: DVDRip-AVC
Видео: 704x464 (16:9) @ 824x464, 23.976 fps, AVC, ~2119 Kbps, 0.271 bits/pixel

Исходник видео R1
Английский, 48.0 KHz, AC3, 6 ch, 448 Kbps
Русский, 48.0 KHz, AC3, 6 ch, 448 Kbps
Субтитры: нет
Общее
Уникальный идентификатор : 188907028070334120203282081354898949001 (0x8E1E2B92A8A6F899ABD74D3201CF4389)
Полное имя : D:FilmsVilbi_Velikolepniy.2004.DVDRip-AVC.mkv
Формат : Matroska
Версия формата : Version 4 / Version 2
Размер файла : 2,09 Гбайт
Продолжительность : 1 ч. 39 м.
Общий поток : 3016 Кбит/сек
Дата кодирования : UTC 2014-03-12 16:20:46
Программа кодирования : mkvmerge v6.8.0 ('Theme for Great Cities') 64bit built on Mar 2 2014 21:34:26
Библиотека кодирования : libebml v1.3.0 + libmatroska v1.4.1

Видео
Идентификатор : 1
Формат : AVC
Формат/Информация : Advanced Video Codec
Профиль формата : High@L4.1
Параметр CABAC формата : Да
Параметр ReFrames формата : 16 кадров
Идентификатор кодека : V_MPEG4/ISO/AVC
Продолжительность : 1 ч. 39 м.
Битрейт : 2119 Кбит/сек
Ширина : 704 пикселя
Высота : 464 пикселя
Соотношение сторон : 16:9
Соотношение сторон в оригинале : 16:9
Режим частоты кадров : Постоянный
Частота кадров : 23,976 кадра/сек
Цветовое пространство : YUV
Субдискретизация насыщенности : 4:2:0
Битовая глубина : 8 бит
Тип развёртки : Прогрессивная
Бит/(Пиксели*Кадры) : 0.271
Размер потока : 1,43 Гбайт (68%)
Библиотека кодирования : x264 core 138 r2358 9e941d1
Настройки программы : cabac=1 / ref=16 / deblock=1:0:0 / analyse=0x3:0x133 / me=umh / subme=10 / psy=1 / psy_rd=1.10:0.10 / mixed_ref=1 / me_range=32 / chroma_me=1 / trellis=2 / 8x8dct=1 / cqm=0 / deadzone=21,11 / fast_pskip=0 / chroma_qp_offset=-6 / threads=8 / lookahead_threads=2 / sliced_threads=0 / nr=0 / decimate=0 / interlaced=0 / bluray_compat=0 / constrained_intra=0 / bframes=14 / b_pyramid=2 / b_adapt=2 / b_bias=0 / direct=3 / weightb=1 / open_gop=0 / weightp=2 / keyint=240 / keyint_min=23 / scenecut=60 / intra_refresh=0 / rc_lookahead=60 / rc=2pass / mbtree=0 / bitrate=2119 / ratetol=1.0 / qcomp=0.60 / qpmin=0 / qpmax=69 / qpstep=4 / cplxblur=20.0 / qblur=0.5 / vbv_maxrate=50000 / vbv_bufsize=62500 / nal_hrd=none / ip_ratio=1.40 / pb_ratio=1.30 / aq=2:1.00
Default : Нет
Forced : Нет
Коэффициенты матрицы : BT.601

Аудио #1
Идентификатор : 2
Формат : AC-3
Формат/Информация : Audio Coding 3
Расширение режима : CM (complete main)
Параметр Endianness формата : Big
Идентификатор кодека : A_AC3
Продолжительность : 1 ч. 39 м.
Вид битрейта : Постоянный
Битрейт : 448 Кбит/сек
Каналы : 6 каналов
Расположение каналов : Front: L C R, Side: L R, LFE
Частота : 48,0 КГц
Битовая глубина : 16 бит
Метод сжатия : С потерями
Размер потока : 318 Мбайт (15%)
Язык : English
Default : Нет
Forced : Нет

Аудио #2
Идентификатор : 3
Формат : AC-3
Формат/Информация : Audio Coding 3
Расширение режима : CM (complete main)
Параметр Endianness формата : Big
Идентификатор кодека : A_AC3
Продолжительность : 1 ч. 39 м.
Вид битрейта : Постоянный
Битрейт : 448 Кбит/сек
Каналы : 6 каналов
Расположение каналов : Front: L C R, Side: L R, LFE
Частота : 48,0 КГц
Битовая глубина : 16 бит
Метод сжатия : С потерями
Размер потока : 318 Мбайт (15%)
Язык : Russian
Default : Да
Forced : Нет

Меню
00:00:00.000 : en:Chapter 01
00:10:10.100 : en:Chapter 02
00:20:25.600 : en:Chapter 03
00:29:47.800 : en:Chapter 04
00:38:08.701 : en:Chapter 05
00:46:06.502 : en:Chapter 06
00:53:22.002 : en:Chapter 07
01:01:09.002 : en:Chapter 08
01:11:37.569 : en:Chapter 09
01:19:45.503 : en:Chapter 10
01:26:08.670 : en:Chapter 11
01:35:42.504 : en:Chapter 12
01:39:10.004 : en:Chapter 13
Релиз от: Temperest



Скачать Вилби.Великолепный.Wilby.Wonderful.(Дэниэл.МакАйвор).[2004.черная.комедия.DVDRip-AVC].[MVO].torrent без регистрации
Золото ЗОЛОТАЯ РАЗДАЧА! СКАЧАННОЕ НЕ ЗАСЧИТЫВАЕТСЯ! Золото
Дата: Зарегистрирован   [ Тип: внутренний ] Как тут cкачать?
MAGNET ссылка
MAGNET ссылка


Скачать .torrent

11 KB

Статус: проверено DHT
Скачан: торрент - 123 раз, раздача полностью - 8 раз
Размер: 2,09 GB
Оценка:  5 (Голосов: 1)
Поблагодарили: 2
Поделиться ссылкой на эту раздачу с друзьями:
В контактеFacebookОдноклассникиTwitterLivejournalМой МирLiveinternet
 

 
Показать сообщения:    


Вы не можете начинать темы
Вы не можете отвечать на сообщения
Вы не можете редактировать свои сообщения
Вы не можете удалять свои сообщения
Вы не можете голосовать в опросах
Вы не можете прикреплять файлы к сообщениям
Вы можете скачивать файлы