Loading...
Error

Скачать Претендент / The Contender (Род Лури / Rod Lurie) [2000, триллер, драма, WEB-DLRip] [AVO] (Ю.Сербин) торрент без регистрации

Статистика раздачи
Размер:  2,11 GB   |    Скачан:  112 раз
Сидов:  1  [  0 KB/s  ]  
 
 
 
Автор Сообщение

leon030982

[] 

Претендент / The Contender


Год выпуска: 2000
Страна: США, Германия, Великобритания
Жанр: триллер, драма
Продолжительность: 02:06:38
Перевод: Авторский (одноголосный, закадровый) [Ю.Сербин]
Cубтитры: нет
Режиссер: Род Лури / Rod Lurie

В ролях: Гари Олдман, Джоан Аллен, Джефф Бриджес, Кристиан Слэйтер, Сэм Эллиотт, Уильям Л. Питерсен, Сол Рубинек, Филип Бейкер Холл, Майк Байндер, Робин Томас...

Описание: Президент США Джексон Ивэнс, которому вскоре предстоит покинуть Белый дом, желая навсегда остаться в истории страны, выдвигает на пост скончавшегося вице-президента женщину, сенатора Лэйн Хенсон, вызывая этим сенсационным решением бурные дебаты в правительстве и обществе. Ему решительно противостоит конгрессмен Шелдон Раньон, у которого есть свой кандидат на этот пост. Наплевав на моральные и этические нормы, он придает гласности факты распутного поведения Лэйн Хенсон в студенческие годы, стремясь «похоронить» сенатора любыми, даже самыми грязными средствами. Теперь умной и порядочной женщине, поставленной перед самым трудным выбором в ее жизни, предстоит решить — сойти ли ей с политической арены, навсегда запятнав себя позором, или продолжить борьбу, противостоя могущественным и безжалостным врагам



Качество: WEB-DLRip [Исх.WEB-DL 720p]
Формат: AVI
Видео кодек: XviD
Аудио кодек: AC3
Видео: 720x400 (1.80:1), 23.976 fps, XviD build 64 ~2189 kbps avg, 0.32 bit/pixel
Аудио: 48 kHz, AC3 Dolby Digital, 2/0 (L,R) ch, ~192.00 kbps avg

Исходник WEB-DL 720p от Синта Рурони с тру.

Цитата:

звуковая дорожка с переводом Юрия Сербина была оцифрована с видеокассеты Hi-Fi качества
на видеомагнитофоне Hi-Fi Stereo (6 Heads) > DVD - рекордере
и синхронизирована с оригинальной дорожкой в программе "SONY Vegas Pro 9.0".
Оскар, 2001 год
Номинации (2):
Лучшая женская роль (Джоан Аллен)
Лучшая мужская роль второго плана (Джефф Бриджес)
Золотой глобус, 2001 год
Номинации (2):
Лучшая женская роль (драма) (Джоан Аллен)
Лучшая мужская роль второго плана (Джефф Бриджес)
General
Complete name : E:\INTERNET\The Contender_2000.WEB-DLRip.[AVO](SERBIN).avi
Format : AVI
Format/Info : Audio Video Interleave
Format profile : OpenDML
File size : 2.11 GiB
Duration : 2h 6mn
Overall bit rate : 2 388 Kbps
Movie name : The Contender 2000
Writing application : XviD4PSP 6.0 / 54.29.105

Video
ID : 0
Format : MPEG-4 Visual
Format profile : Advanced Simple@L5
Format settings, BVOP : 1
Format settings, QPel : No
Format settings, GMC : No warppoints
Format settings, Matrix : Default (H.263)
Codec ID : XVID
Codec ID/Hint : XviD
Duration : 2h 6mn
Bit rate : 2 186 Kbps
Width : 720 pixels
Height : 400 pixels
Display aspect ratio : 16:9
Frame rate : 23.976 fps
Color space : YUV
Chroma subsampling : 4:2:0
Bit depth : 8 bits
Scan type : Progressive
Compression mode : Lossy
Bits/(Pixel*Frame) : 0.317
Stream size : 1.93 GiB (92%)
Title : The_Contender_by_ Rurouni_Sinta
Writing library : XviD 64

Audio
ID : 1
Format : AC-3
Format/Info : Audio Coding 3
Mode extension : CM (complete main)
Codec ID : 2000
Duration : 2h 6mn
Bit rate mode : Constant
Bit rate : 192 Kbps
Channel(s) : 2 channels
Channel positions : Front: L R
Sampling rate : 48.0 KHz
Bit depth : 16 bits
Compression mode : Lossy
Stream size : 174 MiB (8%)
Alignment : Aligned on interleaves
Interleave, duration : 32 ms (0.77 video frame)
Title : Russian (Serbin)



Скачать Претендент.The.Contender.(Род.Лури.Rod.Lurie).[2000.триллер.драма.WEB-DLRip].[AVO].(Ю.Сербин).torrent без регистрации
Золото ЗОЛОТАЯ РАЗДАЧА! СКАЧАННОЕ НЕ ЗАСЧИТЫВАЕТСЯ! Золото
Дата: Зарегистрирован   [ Тип: внутренний ] Как тут cкачать?
MAGNET ссылка
MAGNET ссылка


Скачать .torrent

11 KB

Статус: проверено DHT
Скачан: торрент - 112 раз, раздача полностью - 3 раз
Размер: 2,11 GB
Оценка:  5 (Голосов: 1)
Поблагодарили: 1
Поделиться ссылкой на эту раздачу с друзьями:
В контактеFacebookОдноклассникиTwitterLivejournalМой МирLiveinternet
 

 
Показать сообщения:    


Вы не можете начинать темы
Вы не можете отвечать на сообщения
Вы не можете редактировать свои сообщения
Вы не можете удалять свои сообщения
Вы не можете голосовать в опросах
Вы не можете прикреплять файлы к сообщениям
Вы можете скачивать файлы