Loading...
Error

Скачать Планета Ка-Пэкс / K-PAX (Иэн Софтли) [2001, фантастика, триллер, драма, HDRip-AVC] [MVO]x2+[Оригинал]+[Sub]x2 торрент без регистрации

Статистика раздачи
Размер:  2,24 GB   |    Скачан:  127 раз
Сидов:  1  [  0 KB/s  ]  
 
 
 
Автор Сообщение

Marsianka

[] 

Планета Ка-Пэкс / K-PAX (2001) HDRip-AVC | iPad | P


Название: Планета Ка-Пэкс
Оригинальное название: K-PAX
Год выхода: 2004
Жанр: фантастика, триллер, драма
Режиссер: Иэн Софтли
В ролях: Джефф Бриджес, Кевин Спейси, Трэйси Вилар, Альфре Вудард, Дэвид Патрик Келли, Мэри МакКормак, Сол Уильямс, Питер Джерети, Силия Уэстон, Эджэй Нэйду, Мелани Мюррэй, Джон Тоулс-Бей, Кимберли Скотт, Кончата Феррелл, Винсент Лареска, Марк Кристофер Лоуренс, Брайан Хьюи, Мэри Мара, Брэндон Де Пол, Аарон Пол, Уильям Лакинг, Келли Коннелл, Питер Мэлоуни, Лэнс Е. Николс, Пол Линке, Грег Льюис, Кларк Питерс, Ольга Мередиз, Джо Холт

О фильме:
В Манхэттенский психиатрический институт привозят странного человека в черных очках. Он зовет себя Протом и утверждает, что его родина - далекая планета Ка-Пэкс, откуда он мгновенно перенесся на Землю в луче света. Несмотря на все усилия, опытному доктору Пауэллу не удается разгадать загадку таинственного пациента, который охотно и весьма убедительно доказывает всем свое внеземное происхождение и заранее назначает дату своего возвращения на Ка-Пэкс. Вскоре Марка Пауэлла, так и не сумевшего приоткрыть тайну личности своего самого удивительного подопечного, начинает тревожить невероятная, но навязчивая мысль: может быть, Прот вовсе не сумасшедший и в его словах есть доля правды...



Страна: США
Студия: Universal
Продолжительность: 02:00:21
Перевод: Русский профессиональный многоголосый закадровый

Файл
Кодек: H.264
Качество: HDRip-AVC [576p]
Видео: 1024x436 (2.35:1) at 23.976 fps, AVC at 2200 kbps
1: АAС 2.0 138 kbps - Русский профессиональный многоголосый закадровый (Twister/Paradise )
2: АAС 2.0 156 kbps - Русский профессиональный многоголосый закадровый (НТВ+ )
3: АAС 2.0 144 kbps - Английский
Субтитры: Русский, Английский

General
Complete name : C:CREATE264mod0outK-PAX.2001.HDRip.576p.2xP.m4v
Format : MPEG-4
Codec ID : M4V
File size : 2.24 GiB
Duration : 2h 0mn
Overall bit rate mode : Variable
Overall bit rate : 2 669 Kbps
Movie name : Планета Ка-Пэкс
Performer : Iain Softley
Genre : Drama
ContentType : Short Film
Deion : В Манхэттенский психиатрический институт привозят странного человека в черных очках. Он зовет себя Протом и утверждает, что его родина далекая планета Ка-Пэкс, откуда он мгновенно перенесся на Землю в луче света.
Recorded date : UTC 2001-01-01 08:00:00
Encoded date : UTC 2014-04-04 15:00:37
Tagged date : UTC 2014-04-04 15:19:20
Copyright : Y 2008 Universal Studios. All Rights Reserved.
Cover : Yes
Comment : «Взгляните на мир глазами загадочного незнакомца»
ContentRating : mpaa|PG-13|300|

Title/Sort : K-PAX
LongDeion : В Манхэттенский психиатрический институт привозят странного человека в черных очках. Он зовет себя Протом и утверждает, что его родина далекая планета Ка-Пэкс, откуда он мгновенно перенесся на Землю в луче света. Несмотря на все усилия, доктору Пауэллу не удается разгадать загадку таинственного пациента, который весьма убедительно доказывает всем свое внеземное происхождение. Вскоре Пауэлла, так и не сумевшего открыть тайну личности своего пациэнта, начинает тревожить невероятная мысль: может быть, Прот вовсе не сумасшедший...
AppleStoreCatalogID : 283740309
Vendor : Apple:vendor_id:2001-723

Video
ID : 1
Format : AVC
Format/Info : Advanced Video Codec
Format profile : High@L4.1
Format settings, CABAC : Yes
Format settings, ReFrames : 9 frames
Codec ID : avc1
Codec ID/Info : Advanced Video Coding
Duration : 2h 0mn
Bit rate : 2 218 Kbps
Maximum bit rate : 14.3 Mbps
Width : 1 024 pixels
Height : 436 pixels
Display aspect ratio : 2.35:1
Frame rate mode : Constant
Frame rate : 23.976 fps
Color space : YUV
Chroma subsampling : 4:2:0
Bit depth : 8 bits
Scan type : Progressive
Bits/(Pixel*Frame) : 0.207
Stream size : 1.86 GiB (83%)
Title : K_PAX _2001_
Language : English
Encoded date : UTC 2014-04-04 15:00:37
Tagged date : UTC 2014-04-04 15:01:08
Matrix coefficients : BT.709

Audio #1
ID : 2
Format : AAC
Format/Info : Advanced Audio Codec
Format profile : LC
Codec ID : 40
Duration : 2h 0mn
Bit rate mode : Variable
Bit rate : 137 Kbps
Maximum bit rate : 171 Kbps
Channel(s) : 2 channels
Channel positions : Front: L R
Sampling rate : 48.0 KHz
Compression mode : Lossy
Stream size : 118 MiB (5%)
Title : MVO TwisterParadise
Language : Russian
Encoded date : UTC 2014-04-04 14:49:32
Tagged date : UTC 2014-04-04 15:01:08

Audio #2
ID : 3
Format : AAC
Format/Info : Advanced Audio Codec
Format profile : LC
Codec ID : 40
Duration : 2h 0mn
Bit rate mode : Variable
Bit rate : 156 Kbps
Maximum bit rate : 168 Kbps
Channel(s) : 2 channels
Channel positions : Front: L R
Sampling rate : 48.0 KHz
Compression mode : Lossy
Stream size : 134 MiB (6%)
Title : MVO NTV_
Language : Russian
Encoded date : UTC 2014-04-04 14:54:23
Tagged date : UTC 2014-04-04 15:01:08

Audio #3
ID : 4
Format : AAC
Format/Info : Advanced Audio Codec
Format profile : LC
Codec ID : 40
Duration : 2h 0mn
Bit rate mode : Variable
Bit rate : 144 Kbps
Maximum bit rate : 171 Kbps
Channel(s) : 2 channels
Channel positions : Front: L R
Sampling rate : 48.0 KHz
Compression mode : Lossy
Stream size : 122 MiB (5%)
Title : Original
Language : English
Encoded date : UTC 2014-04-04 14:57:30
Tagged date : UTC 2014-04-04 15:01:08

Text #1
ID : 5
Format : Timed Text
Muxing mode : sbtl
Codec ID : tx3g
Duration : 1h 54mn
Bit rate mode : Variable
Bit rate : 75 bps
Stream size : 63.3 KiB (0%)
Title : rus
Language : Russian
Encoded date : UTC 2014-04-04 15:01:08
Tagged date : UTC 2014-04-04 15:01:08

Text #2
ID : 6
Format : Timed Text
Muxing mode : sbtl
Codec ID : tx3g
Duration : 1h 54mn
Bit rate mode : Variable
Bit rate : 62 bps
Stream size : 52.0 KiB (0%)
Language : English
Encoded date : UTC 2014-04-04 15:01:08
Tagged date : UTC 2014-04-04 15:01:08

Menu
ID : 7
Codec ID : text
Duration : 2h 0mn
Encoded date : UTC 2014-04-04 15:01:40
Tagged date : UTC 2014-04-04 15:01:40
Bit rate mode : CBR


Sort Name: K-PAX
XID: Apple:vendor_id:2001-723
Content ID: 283740309
Copyright: Y 2008 Universal Studios. All Rights Reserved.
ScreenWriters: Чарльз Ливитт, Джин Брюэр
Producers: Роберт Ф. Коулсберри, Лоуренс Гордон, Ллойд Левин
Director: Иэн Софтли
Cast: Кевин Спейси, Джефф Бриджес, Мэри МакКормак, Элфри Вудард, Дэвид Патрик Келли, Сол Уильямс, Питер Герети, Селия Уэстон, Аджай Найду, Трэйси Вилар // Jeff Bridges (Dr. Mark Powell), Kevin Spacey (Prot), Mary McCormack (Rachel Powell), Alfre Woodard (Claudia Villars), Ajay Naidu (Dr. Chakaraborty), Vincent Laresca (Navarro), Kimberly Scott (Joyce Trexler), Conchata Ferrell (Betty McAllister), Saul Williams (Ernie), Peter Gerety (Sal), David Patrick Kelly (Howie), Melanee Murray (Bess), Tracey Vilar (Maria), Celia Weston (Mrs. Archer), Brian Howe (Steve Becker), Tess McCarthy (Natalie Powell), Natasha Dorfhuber (Gabby Powell)
Rating: PG-13
Long Deion: В Манхэттенский психиатрический институт привозят странного человека в черных очках. Он зовет себя Протом и утверждает, что его родина далекая планета Ка-Пэкс, откуда он мгновенно перенесся на Землю в луче света. Несмотря на все усилия, доктору Пауэллу не удается разгадать загадку таинственного пациента, который весьма убедительно доказывает всем свое внеземное происхождение. Вскоре Пауэлла, так и не сумевшего открыть тайну личности своего пациэнта, начинает тревожить невероятная мысль: может быть, Прот вовсе не сумасшедший...
Deion: В Манхэттенский психиатрический институт привозят странного человека в черных очках. Он зовет себя Протом и утверждает, что его родина далекая планета Ка-Пэкс, откуда он мгновенно перенесся на Землю в луче света.
Release Date: 2001-01-01T08:00:00Z
Genre: Drama
Artist: Iain Softley
Name: Планета Ка-Пэкс
Comments: «Взгляните на мир глазами загадочного незнакомца»

x264 [info]: frame I:1199 Avg QP:14.38 size: 64428
x264 [info]: frame P:41366 Avg QP:16.60 size: 24895
x264 [info]: frame B:130574 Avg QP:19.51 size: 6852
x264 [info]: consecutive B-frames: 3.4% 2.7% 10.6% 20.9% 24.8% 32.0% 3.6% 1.0% 0.3% 0.2% 0.1% 0.1% 0.0% 0.1% 0.2%
x264 [info]: mb I I16..4: 11.0% 62.1% 26.9%
x264 [info]: mb P I16..4: 1.5% 9.4% 3.1% P16..4: 30.9% 38.7% 13.3% 0.0% 0.0% skip: 3.2%
x264 [info]: mb B I16..4: 0.2% 1.0% 0.4% B16..8: 35.9% 21.4% 3.0% direct: 4.6% skip:33.5% L0:37.5% L1:45.1% BI:17.4%
x264 [info]: 8x8 transform intra:65.8% inter:45.8%
x264 [info]: coded y,uvDC,uvAC intra: 81.7% 80.9% 59.5% inter: 21.3% 18.1% 8.4%
x264 [info]: i16 v,h,dc,p: 32% 9% 7% 52%
x264 [info]: i8 v,h,dc,ddl,ddr,vr,hd,vl,hu: 16% 8% 9% 8% 12% 13% 11% 12% 12%
x264 [info]: i4 v,h,dc,ddl,ddr,vr,hd,vl,hu: 36% 6% 7% 6% 10% 10% 8% 8% 8%
x264 [info]: i8c dc,h,v,p: 31% 31% 23% 15%
x264 [info]: Weighted P-Frames: Y:4.1% UV:2.0%
x264 [info]: ref P L0: 60.5% 9.1% 13.2% 5.7% 3.8% 2.8% 2.2% 1.3% 1.2% 0.2% 0.0%
x264 [info]: ref B L0: 88.3% 5.4% 2.7% 1.3% 0.9% 0.7% 0.5% 0.2%
x264 [info]: ref B L1: 95.9% 4.1%
x264 [info]: kb/s:2217.60



Скачать Планета.Ка-Пэкс.K-PAX.(Иэн.Софтли).[2001.фантастика.триллер.драма.HDRip-AVC].[MVO]x2+[Оригинал]+[Sub]x2.torrent без регистрации
Золото ЗОЛОТАЯ РАЗДАЧА! СКАЧАННОЕ НЕ ЗАСЧИТЫВАЕТСЯ! Золото
Дата: Зарегистрирован   [ Тип: внутренний ] Как тут cкачать?
MAGNET ссылка
MAGNET ссылка


Скачать .torrent

12 KB

Статус: проверено DHT
Скачан: торрент - 127 раз, раздача полностью - 11 раз
Размер: 2,24 GB
Оценка:  - (Голосов: 0)
Поблагодарили: 1
Поделиться ссылкой на эту раздачу с друзьями:
В контактеFacebookОдноклассникиTwitterLivejournalМой МирLiveinternet
 

 
Показать сообщения:    


Вы не можете начинать темы
Вы не можете отвечать на сообщения
Вы не можете редактировать свои сообщения
Вы не можете удалять свои сообщения
Вы не можете голосовать в опросах
Вы не можете прикреплять файлы к сообщениям
Вы можете скачивать файлы