Loading...
Error

Скачать Реальная белка / The Nut Job (Питер Лепениотис) [2014, мультфильм, комедия, приключения, семейный, BDRip] [1080p] [Dub] [Лицензия] торрент без регистрации

Статистика раздачи
Размер:  6,65 GB   |    Скачан:  1313 раз
Сидов:  1  [  0 KB/s  ]  
 
 
 
Автор Сообщение

sobmaster

[] 

Реальная белка / The Nut Job



Год выпуска: 2013

Страна: Канада , Корея Южная , США
Выпущено: Gulfstream Pictures, Red Rover International, ToonBox Entertainment
Слоган: «Береги свои орешки!»
Жанр: мультфильм, комедия, приключения, семейный

Продолжительность: 01:25:54
Озвучивание: Дублированное [Лицензия]

Режиссер: Питер Лепениотис
Сценарий: Лорн Кэмерон, Питер Лепениотис, Дэниэл Ву
Продюсер: Чжон У Кён, Грэхэм Молой, Хонгджу Ан
Композитор : Пол Интсон
Художник: Йен Хатингс
Монтаж: Джессика Эмбиндер-Роджес, Пол Хантер

В ролях:


Уилл Арнетт (Surly, озвучка), Брендан Фрейзер (Grayson, озвучка), Лиам Нисон (Raccoon, озвучка), Кэтрин Хайгл (Andie, озвучка), Стивен Лэнг (King, озвучка), Майя Рудольф (Precious, озвучка), Джефф Данэм (Mole, озвучка), Гэбриел Иглесиас (Jimmy, озвучка), Сара Гадон (Lana, озвучка), Джеймс Ранкин (Fingers, озвучка), Скотт Яфе (Lucky, озвучка), Джо Пинг (Johnny, озвучка)

Бюджет: $42 000 000
Сборы в США: $63 846 521
Сборы в России: $1 914 771
Сборы в мире: $69 154 499
Зрители: Россия 819.8 тыс. , Корея Южная 477.5 тыс. , Венгрия 97.3 тыс.

Мировая премьера: 11 января 2014
Премьера (РФ): 17 апреля 2014, «Двадцатый Век Фокс СНГ», «Каравелла DDC» 3D
Релиз на DVD: 27 мая 2014, «Lizard Cinema Trade»
Релиз на Blu-Ray: 27 мая 2014, «Lizard Cinema Trade»
Рейтинг MPAA: Рекомендуется присутствие родителей

О фильме:
Обитающие в городском парке Либерти звери не оставляют своих привычек и делают запасы на зиму. Вот только этот год выдался кризисный, а зима уже не за горами, поэтому необходимо срочно пополнить кладовую. Когда в парке появляется тележка продавца орехов, которых сообществу разношерстной компании под руководством енота может хватить на всю зиму, за добычей командируются две белки, Энди и Грейсон. Но оказывается, что независимая белка Злюк и его приятель крысенок Бадди уже опередили остальных и приступили к собственной операции.

Разборки на захваченной тележке приводят к пожару, который уничтожает дерево с запасами. После этого происшествия уставшие от проделок Злюка звери решают прогнать его из парка, и белка оказывается на улицах города, где на каждом шагу подстерегает опасность. С помощью верного Бадди Злюк спасается от банды крыс и находит настоящую золотую жилу магазин орехов. Вскоре Злюк узнает, что хозяева этого магазина не простые торговцы, а настоящие грабители, нацелившиеся на ближайший банк и давно планирующие свою операцию.



Файл
Формат: MKV
Качество: BDRip (1080p)
Видео: MPEG-4 AVC, 9000 Кбит/с, 1920x1032
Аудио: Русский (DTS, 6 ch, 1510 Кбит/с), (AC3, 6 ch, 640 кбит/c)
Размер: 6.65 ГБ

АНОНСЫ ПОПУЛЯРНЫХ РАЗДАЧ



Общее
Уникальный идентификатор : 227709158837711363866349038037966107810 (0xAB4F3052AF70C2E4A3C3EF202639B4A2)
Полное имя : D:\Фильмы\Real'naya.Belka.2014.D.BDRip.1080p.mkv
Формат : Matroska
Версия формата : Version 4 / Version 2
Размер файла : 6,65 Гбайт
Продолжительность : 1 ч. 25 м.
Общий поток : 11,1 Мбит/сек
Дата кодирования : UTC 2014-05-24 05:28:47
Программа кодирования : mkvmerge v6.9.1 ('Blue Panther') 64bit built on Apr 18 2014 18:23:38
Библиотека кодирования : libebml v1.3.0 + libmatroska v1.4.1

Видео
Идентификатор : 1
Формат : AVC
Формат/Информация : Advanced Video Codec
Профиль формата : High@L4.1
Параметр CABAC формата : Да
Параметр ReFrames формата : 4 кадра
Идентификатор кодека : V_MPEG4/ISO/AVC
Продолжительность : 1 ч. 25 м.
Битрейт : 9000 Кбит/сек
Ширина : 1920 пикселей
Высота : 1032 пикселя
Соотношение сторон : 1,85:1
Режим частоты кадров : Постоянный
Частота кадров : 23,976 кадра/сек
Цветовое пространство : YUV
Субдискретизация насыщенности : 4:2:0
Битовая глубина : 8 бит
Тип развёртки : Прогрессивная
Бит/(Пиксели*Кадры) : 0.189
Размер потока : 5,23 Гбайт (79%)
Библиотека кодирования : x264 core 92 r1510 33d382a
Настройки программы : cabac=1 / ref=4 / deblock=1:-1:-1 / analyse=0x3:0x133 / me=umh / subme=9 / psy=1 / psy_rd=1.00:0.10 / mixed_ref=1 / me_range=32 / chroma_me=1 / trellis=2 / 8x8dct=1 / cqm=0 / deadzone=21,11 / fast_pskip=0 / chroma_qp_offset=-3 / threads=6 / sliced_threads=0 / nr=0 / decimate=1 / interlaced=0 / constrained_intra=0 / bframes=3 / b_pyramid=2 / b_adapt=2 / b_bias=0 / direct=3 / wpredb=1 / wpredp=2 / keyint=250 / keyint_min=25 / scenecut=40 / intra_refresh=0 / rc_lookahead=50 / rc=2pass / mbtree=1 / bitrate=9000 / ratetol=1.0 / qcomp=0.60 / qpmin=10 / qpmax=51 / qpstep=4 / cplxblur=20.0 / qblur=0.5 / ip_ratio=1.40 / aq=1:1.00
Язык : English
Default : Да
Forced : Нет

Аудио #1
Идентификатор : 2
Формат : DTS
Формат/Информация : Digital Theater Systems
Режим : 16
Параметр Endianness формата : Big
Идентификатор кодека : A_DTS
Продолжительность : 1 ч. 25 м.
Вид битрейта : Постоянный
Битрейт : 1509 Кбит/сек
Каналы : 6 каналов
Расположение каналов : Front: L C R, Side: L R, LFE
Частота : 48,0 КГц
Битовая глубина : 24 бит
Метод сжатия : С потерями
Размер потока : 922 Мбайт (14%)
Язык : Russian
Default : Да
Forced : Нет

Аудио #2
Идентификатор : 3
Формат : AC-3
Формат/Информация : Audio Coding 3
Расширение режима : CM (complete main)
Параметр Endianness формата : Big
Идентификатор кодека : A_AC3
Продолжительность : 1 ч. 25 м.
Вид битрейта : Постоянный
Битрейт : 640 Кбит/сек
Каналы : 6 каналов
Расположение каналов : Front: L C R, Side: L R, LFE
Частота : 48,0 КГц
Битовая глубина : 16 бит
Метод сжатия : С потерями
Размер потока : 391 Мбайт (6%)
Язык : Russian
Default : Нет
Forced : Нет

Меню
00:00:00.000 : en:00:00:00.000
00:07:46.591 : en:00:07:46.591
00:14:15.104 : en:00:14:15.104
00:21:09.435 : en:00:21:09.435
00:29:39.695 : en:00:29:39.695
00:35:58.365 : en:00:35:58.365
00:43:50.419 : en:00:43:50.419
00:50:47.544 : en:00:50:47.544
00:57:54.930 : en:00:57:54.930
01:04:54.265 : en:01:04:54.265
01:08:28.563 : en:01:08:28.563
01:12:01.150 : en:01:12:01.150


26.05.2014 г. торрент заменён лицензионным!



Скачать Реальная.белка.The.Nut.Job.(Питер.Лепениотис).[2014.мультфильм.комедия.приключения.семейный.BDRip].[1080p].[Dub].[Лицензия].torrent без регистрации
Золото ЗОЛОТАЯ РАЗДАЧА! СКАЧАННОЕ НЕ ЗАСЧИТЫВАЕТСЯ! Золото
Дата: Зарегистрирован   [ Тип: внутренний ] Как тут cкачать?
MAGNET ссылка
MAGNET ссылка


Скачать .torrent

17 KB

Статус: проверено DHT
Скачан: торрент - 1313 раз, раздача полностью - 461 раз
Размер: 6,65 GB
Оценка:  5 (Голосов: 7)
Поблагодарили: 21
Поделиться ссылкой на эту раздачу с друзьями:
В контактеFacebookОдноклассникиTwitterLivejournalМой МирLiveinternet
 

 

sobmaster

[] 

Код:

25.04.2014 г. торрент заменён, обновлено видео, перевод заменён на дубляж!
 

sobmaster

[] 

Код:

26.05.2014 г. торрент заменён лицензионным!
 
Показать сообщения:    


Вы не можете начинать темы
Вы не можете отвечать на сообщения
Вы не можете редактировать свои сообщения
Вы не можете удалять свои сообщения
Вы не можете голосовать в опросах
Вы не можете прикреплять файлы к сообщениям
Вы можете скачивать файлы