Loading...
Error

Скачать Реальная белка / The Nut Job (Питер Лепениотис ) [2013, мультфильм, комедия, приключения, семейный, BLu-Ray] [Remux] [1080p] [Dub (лицензия)]+[MVO (Baibako)]+[Sub Eng] торрент без регистрации

Статистика раздачи
Размер:  21,16 GB   |    Скачан:  159 раз
Сидов:  1  [  0 KB/s  ]  
 
 
 
Автор Сообщение

МихаНЕзатор

[] 

Информация о фильме

Название: Реальная белка
Оригинальное название: The Nut Job
Год выпуска: 2013
Жанр: Мультфильм, комедия, приключения, семейный
Выпущено: Канада, Корея Южная, США, Gulfstream Pictures, Red Rover International, ToonBox Entertainment
Режиссер: Питер Лепениотис
В ролях: Уилл Арнетт, Брендан Фрейзер, Лиам Нисон, Кэтрин Хейгл, Стивен Лэнг, Майя Рудольф, Джефф Данэм, Гэбриел Иглесиас, Сара Гадон, Джеймс Ранкин


О фильме: Пытаясь выжить в городе, неразлучные друзья — белка Злюк и крысёнок Бадди натыкаются на магазин, до краёв набитый их любимым лакомством — орехами. Чувствуя, что «мечты сбываются», приятели планируют величайшее ограбление в истории грызунов. Но тут совсем некстати нарисовались бедные родственники из парка — прямо 13 друзей арахиса! Однако им всем невдомёк, что магазин орехов — лишь прикрытие для банды грабителей, которые намерены вырыть туннель под банк и подменить мешки с деньгами на мешки с теми самыми орехами.




Файл

Качество: Blu-Ray Remux (1080p)
Видео: MPEG-4 AVC, 25908 Kбит/с, 1920x1080, 23.976 кадр/с
Аудио: Русский (AC3, 6 ch, 640 Кбит/с), (DTS-HD MA, 6 ch, 2078 Кбит/с), (DTS-HD MA, 6 ch, 3850 Кбит/с), английский (DTS-HD MA, 6 ch, 2525 Кбит/с)
Размер: 21.16 ГБ
Продолжительность: 01:25:54
Перевод: Дублированный, любительский многоголосый
Субтитры: Английские


Аудио1: Русский (AC3, 6 ch, 640 Кбит/с) - Дублированный (Лицензия)
Аудио2: Русский (DTS-HD MA, 6 ch, 3850 Кбит/с) - Дублированный (Лицензия)
Аудио3: Русский (AC3, 6 ch, 640 Кбит/с) - Baibako
Аудио4: Русский (DTS-HD MA, 6 ch, 2078 Кбит/с) - Baibako
----------------------------------------------------------
За исходник, большое спасибо BLUEBIRD
Сохранены оригинальные чаптеры как на Blu-Ray.

Релиз от: Сборка:

АНОНСЫ ПОПУЛЯРНЫХ РАЗДАЧ


25.05.2014 г. торент обновлён, добавлен многоголосый перевод!

Общее
Уникальный идентификатор : 183477116378388364886899214116468127568 (0x8A086841D14A6F2E869323E4F8B17750)
Полное имя : C:DownloadsThe.Nut.Job.2014.BDRemux.(1080p).ExKinoRay.mkv
Формат : Matroska
Версия формата : Version 2
Размер файла : 21,2 Гбайт
Продолжительность : 1 ч. 25 м.
Режим общего битрейта : Переменный
Общий поток : 35,3 Мбит/сек
Название фильма : Реальная белка.2014.Сборкa: ollan
Дата кодирования : UTC 2014-05-24 07:43:36
Программа кодирования : mkvmerge v5.6.0 ('Kenya Kane') built on May 27 2012 16:44:04
Библиотека кодирования : libebml v1.2.3 + libmatroska v1.3.0

Видео
Идентификатор : 1
Формат : AVC
Формат/Информация : Advanced Video Codec
Профиль формата : High@L4.1
Параметр CABAC формата : Да
Параметр ReFrames формата : 3 кадра
Параметр GOP формата : M=1, N=12
Идентификатор кодека : V_MPEG4/ISO/AVC
Продолжительность : 1 ч. 25 м.
Вид битрейта : Переменный
Максимальный битрейт : 34,0 Мбит/сек
Ширина : 1920 пикселей
Высота : 1080 пикселей
Соотношение сторон : 16:9
Режим частоты кадров : Постоянный
Частота кадров : 23,976 кадра/сек
Цветовое пространство : YUV
Субдискретизация насыщенности : 4:2:0
Битовая глубина : 8 бит
Тип развёртки : Прогрессивная
Default : Да
Forced : Нет

Аудио #1
Идентификатор : 2
Формат : AC-3
Формат/Информация : Audio Coding 3
Расширение режима : CM (complete main)
Параметр Endianness формата : Big
Идентификатор кодека : A_AC3
Продолжительность : 1 ч. 25 м.
Вид битрейта : Постоянный
Битрейт : 640 Кбит/сек
Каналы : 6 каналов
Расположение каналов : Front: L C R, Side: L R, LFE
Частота : 48,0 КГц
Битовая глубина : 16 бит
Метод сжатия : С потерями
Размер потока : 393 Мбайт (2%)
Заголовок : Дублированный (Лицензия)
Язык : Russian
Default : Да
Forced : Нет

Аудио #2
Идентификатор : 3
Формат : DTS
Формат/Информация : Digital Theater Systems
Профиль формата : MA / Core
Режим : 16
Параметр Endianness формата : Big
Идентификатор кодека : A_DTS
Продолжительность : 1 ч. 25 м.
Вид битрейта : Переменный
Битрейт : Неизвестно / 1509 Кбит/сек
Каналы : 6 каналов
Расположение каналов : Front: L C R, Side: L R, LFE
Частота : 48,0 КГц
Битовая глубина : 24 бит
Метод сжатия : Без потерь / Lossy
Заголовок : Дублированный (Лицензия)
Язык : Russian
Default : Нет
Forced : Нет

Аудио #3
Идентификатор : 4
Формат : AC-3
Формат/Информация : Audio Coding 3
Расширение режима : CM (complete main)
Параметр Endianness формата : Big
Идентификатор кодека : A_AC3
Продолжительность : 1 ч. 25 м.
Вид битрейта : Постоянный
Битрейт : 640 Кбит/сек
Каналы : 6 каналов
Расположение каналов : Front: L C R, Side: L R, LFE
Частота : 48,0 КГц
Битовая глубина : 16 бит
Метод сжатия : С потерями
Размер потока : 393 Мбайт (2%)
Заголовок : Профессиональный многоголосый (Baibako)
Язык : Russian
Default : Нет
Forced : Нет

Аудио #4
Идентификатор : 5
Формат : DTS
Формат/Информация : Digital Theater Systems
Профиль формата : MA / Core
Режим : 16
Параметр Endianness формата : Big
Идентификатор кодека : A_DTS
Продолжительность : 1 ч. 25 м.
Вид битрейта : Переменный
Битрейт : Неизвестно / 1509 Кбит/сек
Каналы : 6 каналов
Расположение каналов : Front: L C R, Side: L R, LFE
Частота : 48,0 КГц
Битовая глубина : 16 бит
Метод сжатия : Без потерь / Lossy
Заголовок : Профессиональный многоголосый (Baibako)
Язык : Russian
Default : Нет
Forced : Нет

Аудио #5
Идентификатор : 6
Формат : DTS
Формат/Информация : Digital Theater Systems
Профиль формата : MA / Core
Режим : 16
Параметр Endianness формата : Big
Идентификатор кодека : A_DTS
Продолжительность : 1 ч. 25 м.
Вид битрейта : Переменный
Битрейт : Неизвестно / 1509 Кбит/сек
Каналы : 6 каналов
Расположение каналов : Front: L C R, Side: L R, LFE
Частота : 48,0 КГц
Битовая глубина : 24 бит
Метод сжатия : Без потерь / Lossy
Язык : English
Default : Нет
Forced : Нет

Текст
Идентификатор : 7
Формат : UTF-8
Идентификатор кодека : S_TEXT/UTF8
Идентификатор кодека/Информация : UTF-8 Plain Text
Язык : English
Default : Нет
Forced : Нет

Меню
00:00:00.000 : :Chapter 01
00:02:35.613 : :Chapter 02
00:05:24.574 : :Chapter 03
00:09:57.430 : :Chapter 04
00:14:58.480 : :Chapter 05
00:17:30.090 : :Chapter 06
00:22:18.837 : :Chapter 07
00:27:58.677 : :Chapter 08
00:32:01.169 : :Chapter 09
00:37:50.434 : :Chapter 10
00:40:19.041 : :Chapter 11
00:44:56.610 : :Chapter 12
00:48:14.266 : :Chapter 13
00:53:17.527 : :Chapter 14
00:58:14.991 : :Chapter 15
01:03:04.071 : :Chapter 16
01:08:48.624 : :Chapter 17
01:13:57.182 : :Chapter 18
01:19:32.058 : :Chapter 19
01:23:11.736 : :Chapter 20
01:25:54.232 : :Chapter 21



Скачать Реальная.белка.The.Nut.Job.(Питер.Лепениотис.).[2013.мультфильм.комедия.приключения.семейный.BLu-Ray].[Remux].[1080p].[Dub.(лицензия)]+[MVO.(Baibako)]+[Sub.Eng].torrent без регистрации
Золото ЗОЛОТАЯ РАЗДАЧА! СКАЧАННОЕ НЕ ЗАСЧИТЫВАЕТСЯ! Золото
Дата: Зарегистрирован   [ Тип: внутренний ] Как тут cкачать?
MAGNET ссылка
MAGNET ссылка


Скачать .torrent

54 KB

Статус: проверено DHT
Скачан: торрент - 159 раз, раздача полностью - 54 раз
Размер: 21,16 GB
Оценка:  - (Голосов: 0)
Поблагодарили: 3
Поделиться ссылкой на эту раздачу с друзьями:
В контактеFacebookОдноклассникиTwitterLivejournalМой МирLiveinternet
 

 

МихаНЕзатор

[] 

Раздача обновлена
 
Показать сообщения:    


Вы не можете начинать темы
Вы не можете отвечать на сообщения
Вы не можете редактировать свои сообщения
Вы не можете удалять свои сообщения
Вы не можете голосовать в опросах
Вы не можете прикреплять файлы к сообщениям
Вы можете скачивать файлы