Loading...
Error

Скачать 2012 / 2012 (Роланд Эммерих) [2009, фантастика, боевик, приключения, BDRip] [720p] [Dub] [Лицензия]+[Sub]x2 торрент без регистрации

Статистика раздачи
Размер:  4,37 GB   |    Скачан:  163 раза
Сидов:  1  [  0 KB/s  ]  

 
 
 
Автор Сообщение

Marsianka

[] 

Информация о фильме
Название: 2012
Оригинальное название: 2012
Год выхода: 2009
Жанр: фантастика, боевик, приключения
Режиссер: Роланд Эммерих
В ролях: Джон Кьюсак, Аманда Пит, Чиветель Эджиофор, Тэнди Ньютон, Оливер Платт, Томас МакКарти, Вуди Харрельсон, Дэнни Гловер, Лиам Джеймс, Морган Лили

О фильме: Согласно календарю индейцев Майя, в 2012 году планеты солнечной системы окажутся на одной линии друг с другом, что приведет к глобальным природным катаклизмам: сильнейшие землетрясения, цунами и извержения вулканов превратят страны и целые континенты в руины. Недавно ученые подтвердили, что этот миф может стать реальностью.



Выпущено: Columbia Pictures
Продолжительность: 02:37:49
Перевод: Дублированный (лицензия)

Файл
Кодек: x264
Качество: BDRip (источник: Blu-ray Disc)
Видео: 1280x534 (2,40:1), 23.976 fps, 3070 kbps

Скачать: Сэмпл
Аудио #1: AC-3, 6 ch, 448 kbps (Rus)
Аудио #2: AC-3, 6 ch, 448 kbps (Eng)
Субтитры: Русские (форс,полные), Английские
Общее
Уникальный идентификатор : 182856474802530898795143546348469669325 (0x8990E043CFDCC773B86AEFF51822CDCD)
Полное имя : 2012.2009.BDRip.720p.Rus.Eng.mkv
Формат : Matroska
Версия формата : Version 2
Размер файла : 4,37 Гбайт
Продолжительность : 2 ч. 37 м.
Общий поток : 3967 Кбит/сек
Название фильма : 2012 / 2012 (2009)
Дата кодирования : UTC 2014-06-12 01:25:14
Программа кодирования : mkvmerge v5.8.0 ('No Sleep / Pillow') built on Sep 2 2012 15:37:04
Библиотека кодирования : libebml v1.2.3 + libmatroska v1.3.0

Видео
Идентификатор : 1
Формат : AVC
Формат/Информация : Advanced Video Codec
Профиль формата : High@L4.1
Параметр CABAC формата : Да
Параметр ReFrames формата : 11 кадров
Идентификатор кодека : V_MPEG4/ISO/AVC
Продолжительность : 2 ч. 37 м.
Битрейт : 3070 Кбит/сек
Ширина : 1280 пикселей
Высота : 534 пикселя
Соотношение сторон : 2,40:1
Режим частоты кадров : Постоянный
Частота кадров : 23,976 кадра/сек
Цветовое пространство : YUV
Субдискретизация насыщенности : 4:2:0
Битовая глубина : 8 бит
Тип развёртки : Прогрессивная
Бит/(Пиксели*Кадры) : 0.187
Размер потока : 3,30 Гбайт (75%)
Заголовок : Release by AlexKa
Библиотека кодирования : x264 core 142 r2431 ac76440
Настройки программы : cabac=1 / ref=11 / deblock=1:-3:-3 / analyse=0x3:0x133 / me=umh / subme=11 / psy=1 / psy_rd=1.00:0.00 / mixed_ref=1 / me_range=32 / chroma_me=1 / trellis=2 / 8x8dct=1 / cqm=0 / deadzone=21,11 / fast_pskip=0 / chroma_qp_offset=-2 / threads=12 / lookahead_threads=2 / sliced_threads=0 / nr=0 / decimate=0 / interlaced=0 / bluray_compat=0 / constrained_intra=0 / bframes=9 / b_pyramid=2 / b_adapt=2 / b_bias=0 / direct=3 / weightb=1 / open_gop=0 / weightp=2 / keyint=240 / keyint_min=23 / scenecut=40 / intra_refresh=0 / rc=2pass / mbtree=0 / bitrate=3070 / ratetol=1.0 / qcomp=0.60 / qpmin=0 / qpmax=69 / qpstep=4 / cplxblur=20.0 / qblur=0.5 / ip_ratio=1.40 / pb_ratio=1.30 / aq=1:0.80
Язык : English

Аудио #1
Идентификатор : 2
Формат : AC-3
Формат/Информация : Audio Coding 3
Расширение режима : CM (complete main)
Параметр Endianness формата : Big
Идентификатор кодека : A_AC3
Продолжительность : 2 ч. 37 м.
Вид битрейта : Постоянный
Битрейт : 448 Кбит/сек
Каналы : 6 каналов
Расположение каналов : Front: L C R, Side: L R, LFE
Частота : 48,0 КГц
Битовая глубина : 16 бит
Метод сжатия : С потерями
Размер потока : 506 Мбайт (11%)
Заголовок : Rus
Язык : Russian

Аудио #2
Идентификатор : 3
Формат : AC-3
Формат/Информация : Audio Coding 3
Расширение режима : CM (complete main)
Параметр Endianness формата : Big
Идентификатор кодека : A_AC3
Продолжительность : 2 ч. 37 м.
Вид битрейта : Постоянный
Битрейт : 448 Кбит/сек
Каналы : 6 каналов
Расположение каналов : Front: L C R, Side: L R, LFE
Частота : 48,0 КГц
Битовая глубина : 16 бит
Метод сжатия : С потерями
Размер потока : 506 Мбайт (11%)
Заголовок : Eng
Язык : English

Текст #1
Идентификатор : 4
Формат : UTF-8
Идентификатор кодека : S_TEXT/UTF8
Идентификатор кодека/Информация : UTF-8 Plain Text
Заголовок : Rus forced
Язык : Russian

Текст #2
Идентификатор : 5
Формат : UTF-8
Идентификатор кодека : S_TEXT/UTF8
Идентификатор кодека/Информация : UTF-8 Plain Text
Заголовок : Rus
Язык : Russian

Текст #3
Идентификатор : 6
Формат : UTF-8
Идентификатор кодека : S_TEXT/UTF8
Идентификатор кодека/Информация : UTF-8 Plain Text
Заголовок : Eng
Язык : English

Меню
00:00:00.000 : :Chapter 01
00:11:54.672 : :Chapter 02
00:21:58.233 : :Chapter 03
00:28:47.600 : :Chapter 04
00:34:38.076 : :Chapter 05
00:44:48.143 : :Chapter 06
00:55:26.656 : :Chapter 07
01:05:09.405 : :Chapter 08
01:16:25.289 : :Chapter 09
01:25:02.514 : :Chapter 10
01:36:35.331 : :Chapter 11
01:46:47.234 : :Chapter 12
01:56:49.794 : :Chapter 13
02:04:53.152 : :Chapter 14
02:16:39.983 : :Chapter 15
02:23:21.593 : :Chapter 16
x264 [info]: frame I:1884 Avg QP:13.89 size: 87006
x264 [info]: frame P:52926 Avg QP:16.99 size: 30653
x264 [info]: frame B:172229 Avg QP:19.30 size: 10717
x264 [info]: consecutive B-frames: 3.2% 3.3% 9.6% 22.0% 16.9% 36.8% 5.3% 1.3% 1.0% 0.6%




Скачать 2012.2012.(Роланд.Эммерих).[2009.фантастика.боевик.приключения.BDRip].[720p].[Dub].[Лицензия]+[Sub]x2.torrent без регистрации
Золото ЗОЛОТАЯ РАЗДАЧА! СКАЧАННОЕ НЕ ЗАСЧИТЫВАЕТСЯ! Золото
Дата: Зарегистрирован   [ Тип: внутренний ] Как тут cкачать?
MAGNET ссылка
MAGNET ссылка


Скачать .torrent

12 KB

Статус: проверено DHT
Скачан: торрент - 163 раз, раздача полностью - 125 раз
Размер: 4,37 GB
Оценка:  5 (Голосов: 1)
Поблагодарили: 3
Поделиться ссылкой на эту раздачу с друзьями:
В контактеFacebookОдноклассникиTwitterLivejournalМой МирLiveinternet
 

 
Показать сообщения:    


Вы не можете начинать темы
Вы не можете отвечать на сообщения
Вы не можете редактировать свои сообщения
Вы не можете удалять свои сообщения
Вы не можете голосовать в опросах
Вы не можете прикреплять файлы к сообщениям
Вы можете скачивать файлы