Loading...
Error

Скачать Физрук (сезоны 01-04x01-66 из 80) (Сергей Сенцов, Фёдор Стуков) [2014-2017, комедия, SATRip] торрент без регистрации

Статистика раздачи
Размер:  20,59 GB   |    Скачан:  1231 раз
Сидов:  1  [  0 KB/s  ]  

 
 
 
Автор Сообщение

МихаНЕзатор

[] 

Страна: Россия / Гуд Стори Медиа, MFmedia
Жанр: комедия
Год выпуска: 2014-2016
Режиссер: Сергей Сенцов, Фёдор Стуков, Дмитрий Губарев

В ролях: Дмитрий Нагиев, Александр Гордон, Полина Гренц, Анастасия Панина, Владимир Сычев, Даниил Вахрушев, Андрей Крыжний, Артур Сопельник, Оксана Сидоренко, Карина Мишулина...

Описание: Это история о столкновении двух времен: «лихих» 90-х и «стабильных» десятых. Главный герой Фома всю жизнь был «правой рукой» влиятельного человека с полукриминальным прошлым. Когда «хозяин» выгнал его на пенсию, Фома решил любым способом вернуться обратно. Сначала казалось, что все будет просто: подобраться к ребенку бывшего босса, прогнуться, напомнить о себе и вернуться в дело. Но план Фомы рушится в первый же день. В школе ему приходится задержаться надолго. Попав в абсолютно незнакомый мир детей и учителей, который кардинально отличается от привычного ему круга, Фома не только меняет свою жизнь, но и меняется сам.



Качество: SATRip
Формат: AVI
Видео: 720x400 (16:9), 25.000 fps, XviD ~ 1675 kbps avg, 0.250 bit/pixel
Аудио: 48 kHz, Dolby AC3, 2 ch, 128 kbps
Продолжительность: 63 х ~ 00:24:00
Язык: Русский

АНОНСЫ ПОПУЛЯРНЫХ РАЗДАЧ


Торрент обновлён, добавлена 66-я серия (5-я серия 4-го сезона)!

Внимание! Раздача ведётся путём добавления новых серий
При каждом добавлении создаётся новый торрент. Чтобы начать докачку новой серии, пользователям необходимо сделать следующее:
1) остановить скачивание,
2) удалить старый торрент у себя из клиента (старые серии удалять не надо),
3) скачать новый торрент и запустить его у себя в клиенте вместо старого, при этом указать клиенту путь в старую папку куда и должно происходить скачивание новых серий.

Ваш клиент при этом должен произвести хеширование (проверку) старой папки (если не производит сам - помогите ему сделать это), и будет докачивать только те серии которых у вас ещё нет. Старые серии при этом не удаляются, а продолжают раздаваться!
Eсли вы уже удалили старые серии, то предотвратить повторную закачку старых серий можно, отжав галочку в соответствующих местах при запуске нового торрента.

General
Format : AVI
Format/Info : Audio Video Interleave
File size : 358 MiB
Duration : 25mn 51s
Overall bit rate : 1 938 Kbps
Writing application : VirtualDubMod 1.5.10.3 | www.virtualdub-fr.org || (build 2550/release)
Writing library : VirtualDubMod build 2550/release

Video
ID : 0
Format : MPEG-4 Visual
Format profile : Advanced Simple@L5
Format settings, BVOP : 1
Format settings, QPel : No
Format settings, GMC : No warppoints
Format settings, Matrix : Custom
Codec ID : XVID
Codec ID/Hint : XviD
Duration : 25mn 51s
Bit rate : 1 800 Kbps
Width : 720 pixels
Height : 400 pixels
Display aspect ratio : 16:9
Frame rate : 25.000 fps
Color space : YUV
Chroma subsampling : 4:2:0
Bit depth : 8 bits
Scan type : Progressive
Compression mode : Lossy
Bits/(Pixel*Frame) : 0.250
Stream size : 333 MiB (93%)
Writing library : XviD 73

Audio
ID : 1
Format : AC-3
Format/Info : Audio Coding 3
Mode extension : CM (complete main)
Format settings, Endianness : Big
Codec ID : 2000
Duration : 25mn 51s
Bit rate mode : Constant
Bit rate : 128 Kbps
Channel(s) : 2 channels
Channel positions : Front: L R
Sampling rate : 48.0 KHz
Frame rate : 31.250 fps (1536 spf)
Compression mode : Lossy
Stream size : 23.7 MiB (7%)
Alignment : Split accross interleaves
Interleave, duration : 40 ms (1.00 video frame)
Interleave, preload duratio : 500 ms




Скачать Физрук.(сезоны.01-04x01-66.из.80).(Сергей.Сенцов.Фёдор.Стуков).[2014-2017.комедия.SATRip].torrent без регистрации
Золото ЗОЛОТАЯ РАЗДАЧА! СКАЧАННОЕ НЕ ЗАСЧИТЫВАЕТСЯ! Золото
Дата: Зарегистрирован   [ Тип: внутренний ] Как тут cкачать?
MAGNET ссылка
MAGNET ссылка


Скачать .torrent

106 KB

Статус: проверено DHT
Скачан: торрент - 1231 раз, раздача полностью - 0 раз
Размер: 20,59 GB
Оценка:  4,9 (Голосов: 8)
Поблагодарили: 26
Поделиться ссылкой на эту раздачу с друзьями:
В контактеFacebookОдноклассникиTwitterLivejournalМой МирLiveinternet
 

 
Показать сообщения:    


Вы не можете начинать темы
Вы не можете отвечать на сообщения
Вы не можете редактировать свои сообщения
Вы не можете удалять свои сообщения
Вы не можете голосовать в опросах
Вы не можете прикреплять файлы к сообщениям
Вы можете скачивать файлы