Loading...
Error

Скачать [SERIAL] Зов крови / Lost Girl (сезоны 01-05) (Джон Фоусет) [2010-2015, фэнтези, мистика, драма, боевик, HDTVRip] [MP4, 640x360] [DVO (NewStudio)]+[Eng] торрент без регистрации

Статистика раздачи
Размер:  15,02 GB   |    Скачан:  112 раз
Сидов:  1  [  0 KB/s  ]   Личеров:  1  [  0 KB/s  ]  

 
 
 
Автор Сообщение

МихаНЕзатор

[] 

Информация о фильме
Название: Зов крови
Оригинальное название: Lost Girl
Год выхода: 2010-2015
Жанр: фэнтези, мистика, драма, боевик
Режиссер: Стив ДиМарко, Роберт Либерман, Джон Фоусет, Пол Фокс, Дэвид Грин, Ли Роуз, Гэйл Харви

В ролях: Анна Силк, Кристен Холден-Рид, Ксения Соло, Ричард Хоуланд, Зои Палмер, К.К. Коллинз, Винсент Уолш, Лина Росслер, Афена Карканис, Кле Беннетт, Аарон Эшмор, Энтони Лемке, Эммануэль Вожье, Кейт Троттер, Инга Кадранел, Пол Амос, Арон Тэйджер, Джеймс Кейд, Грегори Финни, Дон Гоф, Кент Нолан, Джеймс Роджерс, Грэхам Вуд, Роб Арчер, Стивен Харт, Йен Дауни

О фильме: Бо - суккуб. Выросшая в человеческой семье она не знала о своей истинной природе, считая себя фриком, а неумение контролировать сверхъестественный голод сделало ее одинокой беглянкой, оставляющей после себя череду трупов. Все меняется, когда Бо попадает в поле зрения кланов Фэйри, объяснивших ей кто она. Не желая выбирать между кланами Света и Тьмы, Бо решает занять сторону людей. Ей помогают юная русская воровка Кензи, детектив-оборотень Дайсон и доктор Лорен, занимающаяся изучением Фэйри.

Релиз от:

Страна: Канада
Студия: Bo Series, Prodigy Pictures
Продолжительность: 77 x ~ 00:44:00
Перевод: Профессиональный (двухголосый, закадровый) [NewStudio]

Файл
Формат: MP4
Качество: WEB-DLRip | КПК
Видео: MPEG-4 AVC (x264), 640x360, ~500 kbps, 23.976 fps
Аудио: AAC LC, 48.0 KHz, 2 ch, 128 Kbps
Субтитры: Нет

АНОНСЫ ПОПУЛЯРНЫХ РАЗДАЧ


Торрент обновлён, собраны все 5 сезонов!
Complete name : E:KinoZov.Krovi.AVC.WEB-DLRip.KPK.NS.GFZov.Krovi.S04.2013-2014.AVC.WEB-DLRip.KPK.NS.GFZov.Krovi.s04e04.2013.AVC.WEB-DLRip.KPK.NS.GF.mp4
Format : MPEG-4
Codec ID : M4V (isom/iso2/avc1)
File size : 200 MiB
Duration : 44 min 7 s
Overall bit rate mode : Variable
Overall bit rate : 634 kb/s
Writing application : Lavf53.19.0

Video
ID : 1
Format : AVC
Format/Info : Advanced Video Codec
Format profile : High@L4.1
Format settings, CABAC : Yes
Format settings, ReFrames : 8 frames
Codec ID : avc1
Codec ID/Info : Advanced Video Coding
Duration : 44 min 7 s
Source duration : 15 min 29 s
Bit rate : 500 kb/s
Width : 640 pixels
Height : 360 pixels
Display aspect ratio : 16:9
Frame rate mode : Constant
Frame rate : 23.976 FPS
Color space : YUV
Chroma subsampling : 4:2:0
Bit depth : 8 bits
Scan type : Progressive
Bits/(Pixel*Frame) : 0.091
Stream size : 158 MiB (79%)
Source stream size : 158 MiB (79%)
Writing library : x264 core 146 r2538 121396c
Encoding settings : cabac=1 / ref=8 / deblock=1:-2:-2 / analyse=0x3:0x133 / me=umh / subme=10 / psy=1 / psy_rd=1.00:0.00 / mixed_ref=1 / me_range=24 / chroma_me=1 / trellis=2 / 8x8dct=1 / cqm=0 / deadzone=21,11 / fast_pskip=1 / chroma_qp_offset=-2 / threads=12 / lookahead_threads=2 / sliced_threads=0 / nr=0 / decimate=0 / interlaced=0 / bluray_compat=0 / constrained_intra=0 / bframes=8 / b_pyramid=2 / b_adapt=2 / b_bias=0 / direct=3 / weightb=1 / open_gop=0 / weightp=2 / keyint=240 / keyint_min=121 / scenecut=40 / intra_refresh=0 / rc_lookahead=40 / rc=2pass / mbtree=1 / bitrate=500 / ratetol=1.0 / qcomp=0.60 / qpmin=0 / qpmax=69 / qpstep=4 / cplxblur=20.0 / qblur=0.5 / ip_ratio=1.40 / aq=1:1.00
Menus : 3
mdhd_Duration : 2647149

Audio
ID : 2
Format : AAC
Format/Info : Advanced Audio Codec
Format profile : LC
Codec ID : 40
Duration : 44 min 7 s
Bit rate mode : Variable
Bit rate : 128 kb/s
Channel(s) : 2 channels
Channel positions : Front: L R
Sampling rate : 48.0 kHz
Frame rate : 46.875 FPS (1024 spf)
Compression mode : Lossy
Stream size : 40.4 MiB (20%)
Default : Yes
Alternate group : 1
Menus : 3




Скачать Зов.крови.Lost.Girl.(сезоны.01-05).(Джон.Фоусет).[2010-2015.фэнтези.мистика.драма.боевик.HDTVRip].[MP4.640x360].[DVO.(NewStudio)]+[Eng].torrent без регистрации
Золото ЗОЛОТАЯ РАЗДАЧА! СКАЧАННОЕ НЕ ЗАСЧИТЫВАЕТСЯ! Золото
Дата: Зарегистрирован   [ Тип: внутренний ] Как тут cкачать?
MAGNET ссылка
MAGNET ссылка


Скачать .torrent

48 KB

Статус: проверено DHT
Скачан: торрент - 112 раз, раздача полностью - 12 раз
Размер: 15,02 GB
Оценка:  - (Голосов: 0)
Поблагодарили: 0
Поделиться ссылкой на эту раздачу с друзьями:
В контактеFacebookОдноклассникиTwitterLivejournalМой МирLiveinternet
 

 
Показать сообщения:    


Вы не можете начинать темы
Вы не можете отвечать на сообщения
Вы не можете редактировать свои сообщения
Вы не можете удалять свои сообщения
Вы не можете голосовать в опросах
Вы не можете прикреплять файлы к сообщениям
Вы можете скачивать файлы