Loading...
Error

Скачать Кавказская пленница, или Новые приключения Шурика (Леонид Гайдай) [1966, мелодрама, комедия, приключения, семейный, музыка, BDRip] [720p] торрент без регистрации

Статистика раздачи
Размер:  2,63 GB   |    Скачан:  572 раза
Сидов:  23  [  0 KB/s  ]   Личеров:  1  [  0 KB/s  ]  

 
 
 
Автор Сообщение

МихаНЕзатор

[] 

Страна: СССР
Производство: Госкино, Мосфильм

Жанр: мелодрама, комедия, приключения, семейный, музыка
Год выпуска: 1966
Продолжительность: 01:19:53

Перевод: не требуется
Оригинальная аудиодорожка: русский
Cубтитры: нет

Режиссер: Леонид Гайдай

В ролях:
Александр Демьяненко (Шурик), Наталья Варлей (Нина), Юрий Никулин (Балбес), Георгий Вицин (Трус), Евгений Моргунов (Бывалый), Владимир Этуш (товарищ Саахов), Фрунзик Мкртчян (Джабраил), Руслан Ахметов (Эдик), Нина Гребешкова (доктор), Михаил Глузский (администратор гостиницы), Георгий Милляр (гостеприимный хозяин с рогом), Эммануил Геллер (торговец на рынке)...

Описание: Отправившись в одну из горных республик собирать фольклор, герой фильма Шурик влюбляется в симпатичную девушку — «спортсменку, отличницу, и просто красавицу». Но ее неожиданно похищают, чтобы насильно выдать замуж. Наивный Шурик не сразу смог сообразить, что творится у него под носом, — однако затем отважно ринулся освобождать «кавказскую пленницу»…


Исходник: BDRemux 1080p
Тип релиза: BDRip 720p
Контейнер: MKV

Видео: 984x720 (4:3), 23,976 fps, H264 ~ 4260 kbps avg, 0.251 bit/pixel
Аудио: 48 kHz, Dolby AC3 5.1, 448 kbps

АНОНСЫ ПОПУЛЯРНЫХ РАЗДАЧ


Общее
Полное имя : Kavkazskaya.Plennica.1967.BDRip720p_[New-team]_by_AVP_Studio.mkv
Формат : Matroska
Версия формата : Version 2
Размер файла : 2,63 Гбайт
Продолжительность : 1 ч. 19 м.
Общий поток : 4710 Кбит/сек
Дата кодирования : UTC 2015-02-21 18:59:23
Программа кодирования : mkvmerge v6.1.0 ('Old Devil') built on Mar 4 2013 09:10:42
Библиотека кодирования : libebml v1.3.0 + libmatroska v1.4.0

Видео
Идентификатор : 1
Формат : AVC
Формат/Информация : Advanced Video Codec
Профиль формата : High@L4.1
Параметр CABAC формата : Да
Параметр ReFrames формата : 6 кадров
Идентификатор кодека : V_MPEG4/ISO/AVC
Продолжительность : 1 ч. 19 м.
Битрейт : 4260 Кбит/сек
Ширина : 984 пикселя
Высота : 720 пикселей
Соотношение сторон : 4:3
Режим частоты кадров : Постоянный
Частота кадров : 23,976 кадра/сек
Цветовое пространство : YUV
Субдискретизация насыщенности : 4:2:0
Битовая глубина : 8 бит
Тип развёртки : Прогрессивная
Бит/(Пиксели*Кадры) : 0.251
Размер потока : 2,33 Гбайт (88%)
Библиотека кодирования : x264 core 138 r2356 a1d3d17
Настройки программы : cabac=1 / ref=6 / deblock=1:-3:-3 / analyse=0x3:0x133 / me=umh / subme=10 / psy=1 / psy_rd=1.00:0.05 / mixed_ref=1 / me_range=32 / chroma_me=1 / trellis=2 / 8x8dct=1 / cqm=0 / deadzone=21,11 / fast_pskip=0 / chroma_qp_offset=-3 / threads=6 / lookahead_threads=1 / sliced_threads=0 / nr=0 / decimate=0 / interlaced=0 / bluray_compat=0 / constrained_intra=0 / bframes=8 / b_pyramid=2 / b_adapt=2 / b_bias=0 / direct=3 / weightb=1 / open_gop=0 / weightp=2 / keyint=240 / keyint_min=24 / scenecut=40 / intra_refresh=0 / rc=2pass / mbtree=0 / bitrate=4260 / ratetol=1.0 / qcomp=0.60 / qpmin=0 / qpmax=69 / qpstep=4 / cplxblur=20.0 / qblur=0.5 / ip_ratio=1.40 / pb_ratio=1.30 / aq=1:1.00
Default : Да
Forced : Нет

Аудио
Идентификатор : 2
Формат : AC-3
Формат/Информация : Audio Coding 3
Расширение режима : CM (complete main)
Параметр Endianness формата : Big
Идентификатор кодека : A_AC3
Продолжительность : 1 ч. 19 м.
Вид битрейта : Постоянный
Битрейт : 448 Кбит/сек
Каналы : 6 каналов
Расположение каналов : Front: L C R, Side: L R, LFE
Частота : 48,0 КГц
Битовая глубина : 16 бит
Метод сжатия : С потерями
Размер потока : 256 Мбайт (10%)
Default : Да
Forced : Нет




Скачать Кавказская.пленница.или.Новые.приключения.Шурика.(Леонид.Гайдай).[1966.мелодрама.комедия.приключения.семейный.музыка.BDRip].[720p].torrent без регистрации
Золото ЗОЛОТАЯ РАЗДАЧА! СКАЧАННОЕ НЕ ЗАСЧИТЫВАЕТСЯ! Золото
Дата: Зарегистрирован   [ Тип: внешний ] Как тут cкачать?
MAGNET ссылка
MAGNET ссылка


Скачать .torrent

14 KB

Статус: проверено DHT
Скачан: торрент - 572 раз, раздача полностью - 905 раз
Размер: 2,63 GB
Оценка:  5 (Голосов: 3)
Поблагодарили: 8
Поделиться ссылкой на эту раздачу с друзьями:
В контактеFacebookОдноклассникиTwitterLivejournalМой МирLiveinternet
 

 
Показать сообщения:    


Вы не можете начинать темы
Вы не можете отвечать на сообщения
Вы не можете редактировать свои сообщения
Вы не можете удалять свои сообщения
Вы не можете голосовать в опросах
Вы не можете прикреплять файлы к сообщениям
Вы можете скачивать файлы