Loading...
Error

Скачать Второй шанс / Футбольная банда / Gridiron Gang (Фил Джоану) [2006, драма, криминал, спорт, BDRip] [1080p] [MVO]+[Sub]x2 торрент без регистрации

Статистика раздачи
Размер:  7,95 GB   |    Скачан:  127 раз
Сидов:  1  [  0 KB/s  ]  
 
 
 
Автор Сообщение

Marsianka

[] 

Второй шанс

Gridiron Gang

«One goal. A second chance.»


Год выпуска: 2006
Страна: США
Жанр: драма, криминал, спорт
Продолжительность: 02:05:17
Перевод: Профессиональный (многоголосый закадровый)
Субтитры: Russian (UTF-8), English (UTF-8)

Режиссер: Фил Джоану
Сценарий: Джеф Магуайр, Жак Фландерс
Продюсер: Нил Х. Мориц, Ли Стэнли, Райан Кэвэна, ...
Оператор: Джефф Каттер
Композитор: Тревор Рэбин
Художник: Флойд Альби, Санья Милкович Хэйс, Эрин Мораче
Монтаж: Джоэль Негрон

В ролях: Дуэйн Джонсон / Dwayne Johnson (в титрах: Dwayne «The Rock» Johnson) (Sean Porter), Иксзибит / Xzibit (Malcolm Moore), Л. Скотт Колдуэлл / L. Scott Caldwell (Bobbi Porter), Леон Риппи / Leon Rippy (Paul Higa), Кевин Данн / Kevin Dunn (Ted Dexter), Джейд Йоркер / Jade Yorker (Willie Weathers), Дэвид В. Томас / David V. Thomas (в титрах: David Thomas) (Kelvin Owens), Сету Таасе / Setu Taase (Junior Palaita)


Описание: Кажется, что те, кто уже серьезно оступились однажды и отбывают срок в исправительном учреждении, обречены, но может ли жизнь предоставить еще один шанс?! Особенно если есть человек, способный помочь. Помогут ли футбол и командный дух его воспитанникам вновь обрести чувство собственного достоинства и встать на путь исправления?!




Бюджет: $30 000 000
Сборы в США: $38 432 823
Сборы в мире: + $3 048 028 = $41 480 851
Зрители: США 5.87 млн , Великобритания 45 тыс. , Германия 41.2 тыс.
Премьера (мир): 5 сентября 2006, ...
Релиз на DVD: 15 февраля 2007, «Columbia/Sony», ...
Релиз на Blu-Ray: 25 июня 2009, «Columbia/Sony», ...
Рейтинг MPAA: Детям до 13 лет просмотр не желателен



Качество: BDRip.1080р
Формат: MKV
Видео кодек: AVC
Аудио кодеk: AC3
Видео: 1920x800 (2.40:1), 23.976 fps, AVC, 8 190 Kbps
Аудио #1: AC3, 448 Kbps, 48.0 KHz, 6 ch Russian
Аудио #2: AC3, 448 Kbps, 48.0 KHz, 6 ch English


General
Complete name : Vtoroj.shans.2006.BDRip.1080р.mkv
Format : Matroska
File size : 7.95 GiB
Duration : 2h 5mn
Overall bit rate : 9 082 Kbps
Encoded date : UTC 2013-07-02 21:15:51
Writing application : mkvmerge v6.1.0 ('Old Devil') built on Mar 2 2013 14:32:37
Writing library : libebml v1.3.0 + libmatroska v1.4.0

Video
ID : 1
Format : AVC
Format/Info : Advanced Video Codec
Format profile : High@L4.1
Format settings, CABAC : Yes
Format settings, ReFrames : 4 frames
Muxing mode : Container profile=Unknown@4.1
Codec ID : V_MPEG4/ISO/AVC
Duration : 2h 5mn
Bit rate : 8 190 Kbps
Width : 1 920 pixels
Height : 800 pixels
Display aspect ratio : 2.40:1
Frame rate : 23.976 fps
Color space : YUV
Chroma subsampling : 4:2:0
Bit depth : 8 bits
Scan type : Progressive
Bits/(Pixel*Frame) : 0.222
Stream size : 7.01 GiB (88%)
Writing library : x264 core 133 r2334 a3ac64b
Encoding settings : cabac=1 / ref=4 / deblock=1:-1:-1 / analyse=0x3:0x133 / me=umh / subme=10 / psy=1 / psy_rd=1.00:0.00 / mixed_ref=1 / me_range=32 / chroma_me=1 / trellis=2 / 8x8dct=1 / cqm=0 / deadzone=21,11 / fast_pskip=0 / chroma_qp_offset=-2 / threads=6 / lookahead_threads=1 / sliced_threads=0 / nr=0 / decimate=1 / interlaced=0 / bluray_compat=0 / constrained_intra=0 / bframes=10 / b_pyramid=2 / b_adapt=2 / b_bias=0 / direct=3 / weightb=1 / open_gop=0 / weightp=2 / keyint=240 / keyint_min=24 / scenecut=40 / intra_refresh=0 / rc_lookahead=50 / rc=2pass / mbtree=0 / bitrate=8190 / ratetol=2.0 / qcomp=1.00 / qpmin=0 / qpmax=51 / qpstep=4 / cplxblur=20.0 / qblur=0.5 / vbv_maxrate=50000 / vbv_bufsize=62500 / nal_hrd=none / ip_ratio=1.40 / pb_ratio=1.30 / aq=1:1.00
Color primaries : BT.709-5, BT.1361, IEC 61966-2-4, SMPTE RP177
Transfer characteristics : BT.709-5, BT.1361
Matrix coefficients : BT.709-5, BT.1361, IEC 61966-2-4 709, SMPTE RP177

Audio #1
ID : 2
Format : AC-3
Format/Info : Audio Coding 3
Mode extension : CM (complete main)
Codec ID : A_AC3
Duration : 2h 5mn
Bit rate mode : Constant
Bit rate : 448 Kbps
Channel(s) : 6 channels
Channel positions : Front: L C R, Side: L R, LFE
Sampling rate : 48.0 KHz
Bit depth : 16 bits
Stream size : 401 MiB (5%)
Language : Russian

Audio #2
ID : 3
Format : AC-3
Format/Info : Audio Coding 3
Mode extension : CM (complete main)
Codec ID : A_AC3
Duration : 2h 5mn
Bit rate mode : Constant
Bit rate : 448 Kbps
Channel(s) : 6 channels
Channel positions : Front: L C R, Side: L R, LFE
Sampling rate : 48.0 KHz
Bit depth : 16 bits
Stream size : 401 MiB (5%)

Text #1
ID : 4
Format : UTF-8
Codec ID : S_TEXT/UTF8
Codec ID/Info : UTF-8 Plain Text
Language : Russian

Text #2
ID : 5
Format : UTF-8
Codec ID : S_TEXT/UTF8
Codec ID/Info : UTF-8 Plain Text

Menu
00:00:00.000 : en:00:00:00.000
00:10:24.791 : en:00:10:24.791
00:20:00.449 : en:00:20:00.449
00:27:42.286 : en:00:27:42.286
00:35:05.645 : en:00:35:05.645
00:42:50.693 : en:00:42:50.693
00:51:27.334 : en:00:51:27.334
00:58:22.082 : en:00:58:22.082
01:03:27.470 : en:01:03:27.470
01:09:40.802 : en:01:09:40.802
01:17:52.293 : en:01:17:52.293
01:24:39.366 : en:01:24:39.366
01:34:34.627 : en:01:34:34.627
01:43:06.097 : en:01:43:06.097
01:50:25.494 : en:01:50:25.494
01:56:57.802 : en:01:56:57.802
Релиз группы:



Скачать Второй.шанс.Футбольная.банда.Gridiron.Gang.(Фил.Джоану).[2006.драма.криминал.спорт.BDRip].[1080p].[MVO]+[Sub]x2.torrent без регистрации
Золото ЗОЛОТАЯ РАЗДАЧА! СКАЧАННОЕ НЕ ЗАСЧИТЫВАЕТСЯ! Золото
Дата: Зарегистрирован   [ Тип: внутренний ] Как тут cкачать?
MAGNET ссылка
MAGNET ссылка


Скачать .torrent

40 KB

Статус: проверено DHT
Скачан: торрент - 127 раз, раздача полностью - 8 раз
Размер: 7,95 GB
Оценка:  - (Голосов: 0)
Поблагодарили: 0
Поделиться ссылкой на эту раздачу с друзьями:
В контактеFacebookОдноклассникиTwitterLivejournalМой МирLiveinternet
 

 
Показать сообщения:    


Вы не можете начинать темы
Вы не можете отвечать на сообщения
Вы не можете редактировать свои сообщения
Вы не можете удалять свои сообщения
Вы не можете голосовать в опросах
Вы не можете прикреплять файлы к сообщениям
Вы можете скачивать файлы