Loading...
Error

Скачать Ужас Амитивилля / The Amityville Horror (Эндрю Дуглас) [2005, ужасы, триллер, драма, детектив, BDRip] [1080p] [Dub]+[MVO]+[Оригинал]+[Sub]x2 торрент без регистрации

Статистика раздачи
Размер:  10,9 GB   |    Скачан:  142 раза
Сидов:  1  [  0 KB/s  ]  
 
 
 
Автор Сообщение

Marsianka

[] 

Информация о фильме
Название: Ужас Амитивилля
Оригинальное название: The Amityville Horror
Год выхода: 2005
Жанр: ужасы, триллер, драма, детектив
Режиссер: Эндрю Дуглас
В ролях: Райан Рейнольдс, Мелисса Джордж, Джесси Джеймс, Джимми Беннетт, Хлоя Моретц, Рейчел Николс, Филип Бейкер Холл, Изабель Коннер, Брендан Дональдсон, Аннабел Армор

О фильме:
14 ноября 1974 года в полицейский участок поступил ужасный звонок: в резиденции семьи Де Фо шесть человек застрелено в своих постелях. Рональд Де Фо признался в убийстве своих родителей и братьев, объяснив, что некие «голоса» велели ему совершить убийства.Год спустя Джордж и Кейти Латс с тремя детьми переезжают в этот дом, полагая, что сбылась их заветная мечта. Они еще не знают, что их счастье под угрозой страшной демонической силы, способной его разрушить. Ужас вновь охватывает Амитивилль


Страна: США
Продолжительность: 01:29:23
Перевод: |Дубляж, R5|
|Многоголосый закадровый, Tycoon-Studio|

Файл
Кодек: x.264
Качество: BDRip 1080p
Видео: 12500 kb/s, 1920x816, 23.976 fps
DTS, 755 kb/s (6Ch)-|Дубляж, R5|
AC3, 448 kb/s (6Ch)-|Многоголосый закадровый, Tycoon-Studio|
DTS, 1536 kb/s (6Ch)-|Оригинал|
Субтитры: Русские, английские
Сохранены оригинальные чаптеры Blu-Ray

Общее
Формат : Matroska
Версия формата : Version 2
Размер файла : 10,9 Гбайт
Продолжительность : 1 ч. 29 м.
Режим общего битрейта : Переменный
Общий поток : 17,5 Мбит/сек
Название фильма : Ужас Амитивилля / The Amityville Horror (2005)-Release for HDCLUB
Дата кодирования : UTC 2011-10-22 17:04:08
Программа кодирования : mkvmerge v5.0.1 ('Es ist Sommer') built on Oct 9 2011 11:55:43
Библиотека кодирования : libebml v1.2.2 + libmatroska v1.3.0

Видео
Идентификатор : 1
Формат : AVC
Формат/Информация : Advanced Video Codec
Профиль формата : High@L4.1
Параметр CABAC формата : Да
Параметр ReFrames формата : 5 кадров
Идентификатор кодека : V_MPEG4/ISO/AVC
Продолжительность : 1 ч. 29 м.
Номинальный битрейт : 12,5 Мбит/сек
Ширина : 1920 пикселей
Высота : 816 пикселей
Соотношение сторон : 2,35:1
Режим частоты кадров : Постоянный
Частота кадров : 23,976 кадра/сек
Цветовое пространство : YUV
Субдискретизация насыщенности : 4:2:0
Битовая глубина : 8 бит
Тип развёртки : Прогрессивная
Бит/(Пиксели*Кадры) : 0.333
Заголовок : Release for HDCLUB
Библиотека кодирования : x264 core 116 r2074 2641b9e
Настройки программы : cabac=1 / ref=5 / deblock=1:-3:-3 / analyse=0x3:0x113 / me=umh / subme=10 / psy=1 / psy_rd=1.00:0.05 / mixed_ref=1 / me_range=32 / chroma_me=1 / trellis=2 / 8x8dct=1 / cqm=0 / deadzone=21,11 / fast_pskip=0 / chroma_qp_offset=-3 / threads=12 / sliced_threads=0 / nr=0 / decimate=0 / interlaced=0 / bluray_compat=0 / constrained_intra=0 / bframes=3 / b_pyramid=2 / b_adapt=2 / b_bias=0 / direct=3 / weightb=1 / open_gop=0 / weightp=2 / keyint=250 / keyint_min=23 / scenecut=40 / intra_refresh=0 / rc=2pass / mbtree=0 / bitrate=12490 / ratetol=1.0 / qcomp=0.60 / qpmin=0 / qpmax=69 / qpstep=4 / cplxblur=20.0 / qblur=0.5 / ip_ratio=1.40 / pb_ratio=1.30 / aq=1:0.70
Язык : English
Default : Да
Forced : Нет

Аудио #1
Идентификатор : 2
Формат : DTS
Формат/Информация : Digital Theater Systems
Режим : 16
Параметр Endianness формата : Big
Идентификатор кодека : A_DTS
Продолжительность : 1 ч. 29 м.
Вид битрейта : Постоянный
Битрейт : 755 Кбит/сек
Каналы : 6 каналов
Расположение каналов : Front: L C R, Side: L R, LFE
Частота : 48,0 КГц
Битовая глубина : 24 бит
Метод сжатия : С потерями
Задержка видео : 3 мс.
Размер потока : 482 Мбайт (4%)
Заголовок : |Дубляж, R5|
Язык : Russian
Default : Да
Forced : Нет

Аудио #2
Идентификатор : 3
Формат : AC-3
Формат/Информация : Audio Coding 3
Расширение режима : CM (complete main)
Параметр Endianness формата : Big
Идентификатор кодека : A_AC3
Продолжительность : 1 ч. 29 м.
Вид битрейта : Постоянный
Битрейт : 448 Кбит/сек
Каналы : 6 каналов
Расположение каналов : Front: L C R, Side: L R, LFE
Частота : 48,0 КГц
Битовая глубина : 16 бит
Метод сжатия : С потерями
Задержка видео : 24 мс.
Размер потока : 286 Мбайт (3%)
Заголовок : |Многоголосый закадровый, Tycoon-Studio|
Язык : Russian
Default : Нет
Forced : Нет

Аудио #3
Идентификатор : 4
Формат : DTS
Формат/Информация : Digital Theater Systems
Профиль формата : MA / Core
Режим : 16
Параметр Endianness формата : Big
Идентификатор кодека : A_DTS
Продолжительность : 1 ч. 29 м.
Вид битрейта : Переменный
Битрейт : Неизвестно / 1509 Кбит/сек
Каналы : 6 каналов
Расположение каналов : Front: L C R, Side: L R, LFE
Частота : 48,0 КГц
Битовая глубина : 24 бит
Метод сжатия : Без потерь / Lossy
Язык : English
Default : Нет
Forced : Нет

Текст #1
Идентификатор : 5
Формат : UTF-8
Идентификатор кодека : S_TEXT/UTF8
Идентификатор кодека/Информация : UTF-8 Plain Text
Язык : Russian
Default : Да
Forced : Нет

Текст #2
Идентификатор : 6
Формат : UTF-8
Идентификатор кодека : S_TEXT/UTF8
Идентификатор кодека/Информация : UTF-8 Plain Text
Язык : English
Default : Нет
Forced : Нет

Меню
00:00:00.000 : en:Chapter 00
00:03:19.157 : en:Chapter 01
00:06:38.106 : en:Chapter 02
00:08:08.029 : en:Chapter 03
00:12:31.459 : en:Chapter 04
00:14:45.884 : en:Chapter 05
00:17:51.570 : en:Chapter 06
00:20:52.250 : en:Chapter 07
00:22:56.541 : en:Chapter 08
00:26:50.525 : en:Chapter 09
00:29:59.672 : en:Chapter 10
00:32:23.650 : en:Chapter 11
00:35:55.987 : en:Chapter 12
00:37:56.065 : en:Chapter 13
00:41:06.463 : en:Chapter 14
00:44:49.937 : en:Chapter 15
00:46:22.321 : en:Chapter 16
00:50:28.984 : en:Chapter 17
00:53:15.025 : en:Chapter 18
00:57:18.476 : en:Chapter 19
01:00:15.653 : en:Chapter 20
01:01:38.861 : en:Chapter 21
01:05:25.129 : en:Chapter 22
01:09:21.866 : en:Chapter 23
01:13:54.220 : en:Chapter 24
01:16:16.446 : en:Chapter 25
01:20:01.046 : en:Chapter 26
01:21:55.327 : en:Chapter 27
Релиз от:



Скачать Ужас.Амитивилля.The.Amityville.Horror.(Эндрю.Дуглас).[2005.ужасы.триллер.драма.детектив.BDRip].[1080p].[Dub]+[MVO]+[Оригинал]+[Sub]x2.torrent без регистрации
Золото ЗОЛОТАЯ РАЗДАЧА! СКАЧАННОЕ НЕ ЗАСЧИТЫВАЕТСЯ! Золото
Дата: Зарегистрирован   [ Тип: внутренний ] Как тут cкачать?
MAGNET ссылка
MAGNET ссылка


Скачать .torrent

55 KB

Статус: проверено DHT
Скачан: торрент - 142 раз, раздача полностью - 50 раз
Размер: 10,9 GB
Оценка:  5 (Голосов: 1)
Поблагодарили: 1
Поделиться ссылкой на эту раздачу с друзьями:
В контактеFacebookОдноклассникиTwitterLivejournalМой МирLiveinternet
 

 
Показать сообщения:    


Вы не можете начинать темы
Вы не можете отвечать на сообщения
Вы не можете редактировать свои сообщения
Вы не можете удалять свои сообщения
Вы не можете голосовать в опросах
Вы не можете прикреплять файлы к сообщениям
Вы можете скачивать файлы