Loading...
Error

Скачать Предатель / Traitor (Джеффри Начманофф) [2008, боевик, триллер, драма, криминал, BDRip] [1080p] [DVO]+[Sub]x2 торрент без регистрации

Статистика раздачи
Размер:  10,13 GB   |    Скачан:  122 раза
Сидов:  1  [  0 KB/s  ]  
 
 
 
Автор Сообщение

Marsianka

[] 

Информация о фильме
Название: Предатель
Оригинальное название: Traitor
Год выхода: 2008
Жанр: боевик, триллер, драма, криминал
Режиссер: Джеффри Начманофф
В ролях: Дон Чидл, Гай Пирс, Саид Тагмауи, Нил МакДонаф, Али Кхан, Арчи Панджаби, Раад Рави, Хассам Ганси, Можан Марно, Адиль Ахтар, Джефф Дэниелс, Лорена Гэйл, Скали Делпейрат, Фарид Реграгуи, Джозеф Бедделем, Алаа Омузун, Том Барнетт, Саймон Рейнольдс, Мэтт Гордон, Патрик Родни Барнс, Шахла Карен, Али Момен, Паулино Нюнс, Александра Кастилло, Джефф Кэссел, Дани Джаззар, Джонатан Уолкер, Скотт Виквэа, Элиас Зэроу, Катрин Гэлловэй, Мириам Бланкер, Ник Алачиотис, Алекс Поч-Голдин, Наташа Рой, Родригез Гелос, Рон Белл

О фильме:
Агент ФБР Рой Клэйтон ведет расследование опасного международного заговора и обнаруживает, что все нити ведут к офицеру США отдела Специальных Операций Самиру Хорну. Мистическая фигура со связями в террористических организациях, Хорн умеет появляться как раз во время окончания основной операции. Разгадки ведут к побегу из тюрьмы в Йемене, взрыву бомбы в Ницце и налете в Лондоне — все это путает Роя Клэйтона, задающегося вопросом — кто же Хорн…


Сатурн, 2009 год
Номинации (1):
Лучший приключенческий фильм, боевик или триллер
Общее
Уникальный идентификатор : 227209705591763408528494907635925044914 (0xAAEEFF60732BEF018D656F122C30CEB2)
Полное имя : Traitor.2008.BD.Rip.1080p.h264.Rus.Eng.mkv
Формат : Matroska
Версия формата : Version 1
Размер файла : 10,1 Гбайт
Продолжительность : 1 ч. 54 м.
Общий поток : 12,7 Мбит/сек
Дата кодирования : UTC 2009-01-27 09:45:53
Программа кодирования : mkvmerge v2.4.2 ('Oh My God') built on Jan 18 2009 17:30:28
Библиотека кодирования : libebml v0.7.7 + libmatroska v0.8.1

Видео
Идентификатор : 1
Формат : AVC
Формат/Информация : Advanced Video Codec
Профиль формата : High@L4.1
Параметр CABAC формата : Да
Параметр ReFrames формата : 5 кадров
Идентификатор кодека : V_MPEG4/ISO/AVC
Продолжительность : 1 ч. 54 м.
Битрейт : 11,6 Мбит/сек
Ширина : 1920 пикселей
Высота : 800 пикселей
Соотношение сторон : 2,40:1
Режим частоты кадров : Постоянный
Частота кадров : 23,976 кадра/сек
Цветовое пространство : YUV
Субдискретизация насыщенности : 4:2:0
Битовая глубина : 8 бит
Тип развёртки : Прогрессивная
Бит/(Пиксели*Кадры) : 0.316
Размер потока : 9,06 Гбайт (89%)
Библиотека кодирования : x264 core 66 r1086M 39a2796
Настройки программы : cabac=1 / ref=5 / deblock=1:-3:-3 / analyse=0x3:0x113 / me=umh / subme=9 / psy_rd=1.0:0.0 / mixed_ref=1 / me_range=32 / chroma_me=1 / trellis=0 / 8x8dct=1 / cqm=2 / deadzone=6,4 / chroma_qp_offset=-2 / threads=6 / nr=0 / decimate=0 / mbaff=0 / bframes=3 / b_pyramid=1 / b_adapt=2 / b_bias=0 / direct=3 / wpredb=1 / keyint=240 / keyint_min=24 / scenecut=40(pre) / rc=2pass / bitrate=11620 / ratetol=1.0 / qcomp=0.60 / qpmin=10 / qpmax=51 / qpstep=4 / cplxblur=20.0 / qblur=0.5 / ip_ratio=1.40 / pb_ratio=1.30 / aq=1:1.00
Язык : English
Default : Да
Forced : Нет

Аудио #1
Идентификатор : 2
Формат : AC-3
Формат/Информация : Audio Coding 3
Расширение режима : CM (complete main)
Параметр Endianness формата : Big
Идентификатор кодека : A_AC3
Продолжительность : 1 ч. 54 м.
Вид битрейта : Постоянный
Битрейт : 448 Кбит/сек
Каналы : 6 каналов
Расположение каналов : Front: L C R, Side: L R, LFE
Частота : 48,0 КГц
Битовая глубина : 16 бит
Метод сжатия : С потерями
Размер потока : 366 Мбайт (4%)
Заголовок : AC3 5.1 448 kbps
Язык : Russian
Default : Да
Forced : Нет

Аудио #2
Идентификатор : 3
Формат : AC-3
Формат/Информация : Audio Coding 3
Расширение режима : CM (complete main)
Параметр Endianness формата : Big
Идентификатор кодека : A_AC3
Продолжительность : 1 ч. 54 м.
Вид битрейта : Постоянный
Битрейт : 640 Кбит/сек
Каналы : 6 каналов
Расположение каналов : Front: L C R, Side: L R, LFE
Частота : 48,0 КГц
Битовая глубина : 16 бит
Метод сжатия : С потерями
Размер потока : 522 Мбайт (5%)
Заголовок : AC3 5.1 640 kbps
Язык : English
Default : Нет
Forced : Нет

Текст #1
Идентификатор : 4
Формат : UTF-8
Идентификатор кодека : S_TEXT/UTF8
Идентификатор кодека/Информация : UTF-8 Plain Text
Язык : Russian
Default : Нет
Forced : Нет

Текст #2
Идентификатор : 5
Формат : UTF-8
Идентификатор кодека : S_TEXT/UTF8
Идентификатор кодека/Информация : UTF-8 Plain Text
Язык : English
Default : Нет
Forced : Нет
Страна: США
Продолжительность: 01:54:08
Перевод: Профессиональный двухголосый

Файл
Кодек: MPEG-4 AVC
Качество: BDRip 1080p
Видео: 11.6 Мбит/с, 1920x800, 23.976 кадр/с
Звук: Русский (AC3, 6 ch, 448 Кбит/с), английский (AC3, 6 ch, 640 Кбит/с)
Субтитры: Русские, английские



Скачать Предатель.Traitor.(Джеффри.Начманофф).[2008.боевик.триллер.драма.криминал.BDRip].[1080p].[DVO]+[Sub]x2.torrent без регистрации
Золото ЗОЛОТАЯ РАЗДАЧА! СКАЧАННОЕ НЕ ЗАСЧИТЫВАЕТСЯ! Золото
Дата: Зарегистрирован   [ Тип: внутренний ] Как тут cкачать?
MAGNET ссылка
MAGNET ссылка


Скачать .torrent

51 KB

Статус: проверено DHT
Скачан: торрент - 122 раз, раздача полностью - 0 раз
Размер: 10,13 GB
Оценка:  - (Голосов: 0)
Поблагодарили: 0
Поделиться ссылкой на эту раздачу с друзьями:
В контактеFacebookОдноклассникиTwitterLivejournalМой МирLiveinternet
 

 
Показать сообщения:    


Вы не можете начинать темы
Вы не можете отвечать на сообщения
Вы не можете редактировать свои сообщения
Вы не можете удалять свои сообщения
Вы не можете голосовать в опросах
Вы не можете прикреплять файлы к сообщениям
Вы можете скачивать файлы