Loading...
Error

Скачать Джонатан Стрендж и мистер Норрелл / Jonathan Strange & Mr Norrell (Сезон 01) (Тоби Хэйнс) [2015, фэнтези, история, HDRip] [MVO] (AlexFilm) торрент без регистрации

Статистика раздачи
Размер:  4,8 GB   |    Скачан:  112 раз
Сидов:  1  [  0 KB/s  ]  

 
 
 
Автор Сообщение

МихаНЕзатор

[] 

Джонатан Стрендж и мистер Норрелл
Jonathan Strange & Mr Norrell


Год выпуска: 2015
Страна: Великобритания
Жанр: фэнтези, история
Продолжительность: 7х ~ 01:00:00
Озвучание: Профессиональное (многоголосое закадровое) (AlexFilm)

Режиссер: Тоби Хэйнс

В ролях: Марк Уоррен, Эрион Бакаре, Берти Карвел, Энцо Чиленти, Элис Энглерт, Винсент Франклин, Джон Хеффернан, Эдвард Хогг, Пол Кэй, Эдди Марсан

Описание: История начинается в альтернативной Англии XIX века в период Наполеоновских войн. Английская магия, когда-то утраченная возвращается благодаря консервативному Гильберту Норреллу и дерзкому новичку Джонатану Стренджу. Мистер Норрелл воскрешает невесту высокопоставленного правительственного чиновника, заключив для этого сделку с потусторонними силами, тем самым запустив череду непредсказуемых и трагических событий.

Перевод: Константин Кривоногов
Монтаж и сведение звука: Михаил Шорыгин
Роли озвучивали:Евгения Тихонова
Роман Сопко
Михаил Суслов
Владимир Курдов
Константин Погодаев



Качество: HDRip
Формат: AVI
Видео: 720x400 (1.80:1), 23.976 fps, XviD ~1400 kbps avg, 0.20 bit/pixel
Аудио Rus: 48 kHz, MPEG Layer 3, 2 ch, ~128.00 kbps
Аудио Eng: 48 kHz, MPEG Layer 3, 2 ch, ~128.00 kbps
Субтитры: нет
Формат : AVI
Формат/Информация : Audio Video Interleave
Размер файла : 702 Мбайт
Продолжительность : 59 м.
Общий поток : 1658 Кбит/сек
Название фильма : Jonathan Strange and Mr.Norrell 1x01 Job @ AlexFilm
Программа кодирования : VirtualDubMod 1.5.10.2 (build 2540/release)
Библиотека кодирования : VirtualDubMod build 2540/release

Видео
Идентификатор : 0
Формат : MPEG-4 Visual
Профиль формата : Advanced Simple@L5
Параметр BVOP формата : Нет
Параметр QPel формата : Нет
Параметр GMC формата : Без точки перехода
Параметр матрицы формата : Default (H.263)
Идентификатор кодека : XVID
Идентификатор кодека/Подсказка : XviD
Продолжительность : 59 м.
Битрейт : 1388 Кбит/сек
Ширина : 720 пикселей
Высота : 400 пикселей
Соотношение сторон : 16:9
Частота кадров : 25,000 кадров/сек
Цветовое пространство : YUV
Субдискретизация насыщенности : 4:2:0
Битовая глубина : 8 бит
Тип развёртки : Прогрессивная
Метод сжатия : С потерями
Бит/(Пиксели*Кадры) : 0.193
Размер потока : 588 Мбайт (84%)
Библиотека кодирования : XviD 73

Аудио #1
Идентификатор : 1
Формат : MPEG Audio
Версия формата : Version 1
Профиль формата : Layer 3
Режим : Joint stereo
Расширение режима : MS Stereo
Идентификатор кодека : 55
Идентификатор кодека/Подсказка : MP3
Продолжительность : 59 м.
Вид битрейта : Постоянный
Битрейт : 128 Кбит/сек
Каналы : 2 канала
Частота : 48,0 КГц
Метод сжатия : С потерями
Размер потока : 54,2 Мбайт (8%)
Выравнивание : Соединение по промежуткам
Продолжительность промежутка : 40 мс. (1,00 видеокадр)
Время предзагрузки промежутка : 504 мс.
Заголовок : Russian (AlexFilm)
Библиотека кодирования : LAME3.99r
Настройки программы : -m j -V 4 -q 3 -lowpass 18 -b 128

Аудио #2
Идентификатор : 2
Формат : MPEG Audio
Версия формата : Version 1
Профиль формата : Layer 3
Режим : Joint stereo
Расширение режима : MS Stereo
Идентификатор кодека : 55
Идентификатор кодека/Подсказка : MP3
Продолжительность : 59 м.
Вид битрейта : Постоянный
Битрейт : 128 Кбит/сек
Каналы : 2 канала
Частота : 48,0 КГц
Метод сжатия : С потерями
Размер потока : 54,2 Мбайт (8%)
Выравнивание : Соединение по промежуткам
Продолжительность промежутка : 40 мс. (1,00 видеокадр)
Время предзагрузки промежутка : 504 мс.
Заголовок : English
Библиотека кодирования : LAME3.90.3




Скачать Джонатан.Стрендж.и.мистер.Норрелл.Jonathan.Strange.&.Mr.Norrell.(Сезон.01).(Тоби.Хэйнс).[2015.фэнтези.история.HDRip].[MVO].(AlexFilm).torrent без регистрации
Золото ЗОЛОТАЯ РАЗДАЧА! СКАЧАННОЕ НЕ ЗАСЧИТЫВАЕТСЯ! Золото
Дата: Зарегистрирован   [ Тип: внутренний ] Как тут cкачать?
MAGNET ссылка
MAGNET ссылка


Скачать .torrent

13 KB

Статус: проверено DHT
Скачан: торрент - 112 раз, раздача полностью - 25 раз
Размер: 4,8 GB
Оценка:  - (Голосов: 0)
Поблагодарили: 1
Поделиться ссылкой на эту раздачу с друзьями:
В контактеFacebookОдноклассникиTwitterLivejournalМой МирLiveinternet
 

 
Показать сообщения:    


Вы не можете начинать темы
Вы не можете отвечать на сообщения
Вы не можете редактировать свои сообщения
Вы не можете удалять свои сообщения
Вы не можете голосовать в опросах
Вы не можете прикреплять файлы к сообщениям
Вы можете скачивать файлы