Loading...
Error

Скачать Штамм / The Strain (сезоны 01-04) (Гильермо дель Торо и др.) [2014-2016, ужасы, фантастика, драма, WEB-DL] [720p] 3х[MVO (LostFilm, NewStudio, AlexFilm)] торрент без регистрации

Статистика раздачи
Размер:  73,42 GB   |    Скачан:  1933 раза
Сидов:  4  [  0 KB/s  ]   Личеров:  14  [  0 KB/s  ]  

 
 
 
Автор Сообщение

МихаНЕзатор

[] 

Название: Штамм
Оригинальное название: The Strain
Год выхода: 2014 - 2017
Жанр: ужасы, триллер, драма

Режиссер: Дж. Майлз Дэйл, Кевин Даулинг, Деран Сарафян, ...
В ролях: Дэвид Брэдли (I), Кори Столл, Миа Маэстро, Джонатан Хайд, Энн Бетанкорт, Бен Хайленд, Николай Вич, Педро Мигель Арсе, Дрю Нельсон, Джо Веркилло, Джим Уотсон, Алекс Пэкстон, Джонатан Поттс, Рихард Заммель, Шон Эстин, Дэррин Бэйкер, Натали Браун, Дональд Бурда, Кевин Дюран, Хавьер Ботет, Реджина Кинг, ...

О сериале: В аэропорту Нью-Йорка экстренно приземляется самолет, полный мертвецов. Для выяснения обстоятельств их смерти на борт направляются ученые, возглавляемые лучшим городским эпидемиологом Эфраимом Гудвезером. В ходе исследований становится ясно, что пассажиры заражены вирусом вампиризма, который грозит перерасти в масштабную эпидемию, способную погубить все человечество…



Страна: США
Студия: Mirada
Продолжительность: 46 x ~ 42:00
Перевод:
- Профессиональный (многоголосый, закадровый) LostFilm
- Профессиональный (многоголосый, закадровый) NewStudio
- Профессиональный (многоголосый, закадровый) AlexFilm

Кодек: MPEG4/ISO/AVC
Качество: WEB-DL 720p
Видео: 1280x720, ~4000 kbps, 23,976 fps
Аудио #1: AC-3, 6 ch, 384 kbps (Rus) - LostFilm (1,2 и 3 сезон)
Аудио #1: AC-3, 2 ch, 384 kbps (Rus) - LostFilm (4 сезон)
Аудио #2: AC-3, 6 ch, 384 kbps (Rus) - NewStudio
Аудио #3: AC-3, 6 ch, 384 kbps (Rus) - AlexFilm

АНОНСЫ ПОПУЛЯРНЫХ РАЗДАЧ


Торрент обновлён, , улучшен видеоряд и звук, добавлен 4-й сезон и переводы от NewStudio и AlexFilm!
Общее
Уникальный идентификатор : 234764349892640057090136076110962061852 (0xB09DF8191E6F51BC8DDDF1D40B17721C)
Полное имя : The Strain E01 S01 2014 WEB-DL 720p LostFilm NewStudio AlexFilm.mkv
Формат : Matroska
Версия формата : Version 2
Размер файла : 2,70 Гбайт
Продолжительность : 1 ч. 11 м.
Общий поток : 5391 Кбит/сек
Дата кодирования : UTC 2015-10-17 11:21:18
Программа кодирования : mkvmerge v4.0.0 ('The Stars were mine') сборка от Jun 6 2010 16:18:42
Библиотека кодирования : libebml v1.0.0 + libmatroska v1.0.0

Видео
Идентификатор : 1
Формат : AVC
Формат/Информация : Advanced Video Codec
Профиль формата : High@L3.1
Параметр CABAC формата : Нет
Параметр ReFrames формата : 2 кадра
Идентификатор кодека : V_MPEG4/ISO/AVC
Продолжительность : 1 ч. 11 м.
Битрейт : 4131 Кбит/сек
Ширина : 1280 пикселей
Высота : 720 пикселей
Соотношение сторон : 16:9
Режим частоты кадров : Постоянный
Частота кадров : 23,976 кадра/сек
Цветовое пространство : YUV
Субдискретизация насыщенности : 4:2:0
Битовая глубина : 8 бит
Тип развёртки : Прогрессивная
Бит/(Пиксели*Кадры) : 0.187
Размер потока : 2,07 Гбайт (77%)
Язык : English
Default : Нет
Forced : Нет
Цветовой диапазон : Limited
Основные цвета : BT.709
Характеристики трансфера : BT.709
Коэффициенты матрицы : BT.709

Аудио #1
Идентификатор : 2
Формат : AC-3
Формат/Информация : Audio Coding 3
Расширение режима : CM (complete main)
Параметр Endianness формата : Big
Идентификатор кодека : A_AC3
Продолжительность : 1 ч. 11 м.
Вид битрейта : Постоянный
Битрейт : 384 Кбит/сек
Каналы : 6 каналов
Расположение каналов : Front: L C R, Side: L R, LFE
Частота : 48,0 КГц
Частота кадров : 31,250 кадров/сек (1536 spf)
Метод сжатия : С потерями
Размер потока : 197 Мбайт (7%)
Заголовок : LostFilm
Язык : Russian
Default : Нет
Forced : Нет

Аудио #2
Идентификатор : 3
Формат : AC-3
Формат/Информация : Audio Coding 3
Расширение режима : CM (complete main)
Параметр Endianness формата : Big
Идентификатор кодека : A_AC3
Продолжительность : 1 ч. 11 м.
Вид битрейта : Постоянный
Битрейт : 384 Кбит/сек
Каналы : 6 каналов
Расположение каналов : Front: L C R, Side: L R, LFE
Частота : 48,0 КГц
Частота кадров : 31,250 кадров/сек (1536 spf)
Метод сжатия : С потерями
Размер потока : 197 Мбайт (7%)
Заголовок : NewStudio
Язык : Russian
Default : Нет
Forced : Нет

Аудио #3
Идентификатор : 4
Формат : AC-3
Формат/Информация : Audio Coding 3
Расширение режима : CM (complete main)
Параметр Endianness формата : Big
Идентификатор кодека : A_AC3
Продолжительность : 1 ч. 11 м.
Вид битрейта : Постоянный
Битрейт : 384 Кбит/сек
Каналы : 6 каналов
Расположение каналов : Front: L C R, Side: L R, LFE
Частота : 48,0 КГц
Частота кадров : 31,250 кадров/сек (1536 spf)
Метод сжатия : С потерями
Размер потока : 197 Мбайт (7%)
Заголовок : AlexFilm
Язык : Russian
Default : Нет
Forced : Нет




Скачать Штамм.The.Strain.(сезоны.01-04).(Гильермо.дель.Торо.и.др.).[2014-2016.ужасы.фантастика.драма.WEB-DL].[720p].3х[MVO.(LostFilm.NewStudio.AlexFilm)].torrent без регистрации
Золото ЗОЛОТАЯ РАЗДАЧА! СКАЧАННОЕ НЕ ЗАСЧИТЫВАЕТСЯ! Золото
Дата: Зарегистрирован   [ Тип: внешний ] Как тут cкачать?
MAGNET ссылка
MAGNET ссылка


Скачать .torrent

378 KB

Статус: проверено DHT
Скачан: торрент - 1933 раз, раздача полностью - 0 раз
Размер: 73,42 GB
Оценка:  - (Голосов: 0)
Поблагодарили: 0
Поделиться ссылкой на эту раздачу с друзьями:
В контактеFacebookОдноклассникиTwitterLivejournalМой МирLiveinternet
 

 
Показать сообщения:    


Вы не можете начинать темы
Вы не можете отвечать на сообщения
Вы не можете редактировать свои сообщения
Вы не можете удалять свои сообщения
Вы не можете голосовать в опросах
Вы не можете прикреплять файлы к сообщениям
Вы можете скачивать файлы