Loading...
Error

Скачать Бежать нельзя погибнуть (01-02 из 02) (Александр Касаткин) [2015, мелодрама, криминал, HDTVRip-AVC] торрент без регистрации

Статистика раздачи
Размер:  2,15 GB   |    Скачан:  138 раз
Сидов:  1  [  0 KB/s  ]  
 
 
 
Автор Сообщение

МихаНЕзатор

[] 

Информация о фильме
Оригинальное название: Бежать нельзя погибнуть
Год выхода: 2015
Жанр: Мелодрама, криминал
Режиссер: Александр Касаткин

В ролях: Вероника Пляшкевич, Алексей Янин, Владимир Мишуков, Анатолий Голуб

О фильме: Алла практически впервые увидела свою старшую сестру Аду на похоронах отца -родители при разводе разлучили девочек. Ада теперь преуспевающий модельер, а Алла хоть и многообещающий, но никому не известный художник... Внезапно вновь обретенная сестра предлагает Алле работу в своем доме моделей. Но для того, чтобы получить эту работу, нужно оказать Аде услугу: заменить ее на несколько дней. Но не подменить ее, оставаясь собой, а стать Адой на это время - ведь сестры очень похожи. Если изменить прическу и макияж, манеру разговора и походку, то Алла превращается в вылитую Аду. Алла соглашается выручить сестру, но вскоре понимает, что вляпалась в криминальную историю. Для начала ее пытаются убить!



Страна: Россия
Студия: Кинокомпания "Паламеда Продакшн"
Продолжительность: 2 х ~ 01:26:00
Перевод: Не требуется

Файл
Качество: HDTVRip-AVC
Видео: 1024х572 , 25 fps, AVC MPEG-4 (x264), High@L4.1 ~ 1500 Kbps
Звук: 48 kHz, AC3, 2 ch, 192 kbps

АНОНСЫ ПОПУЛЯРНЫХ РАЗДАЧ
General
Unique ID : 183472445100662047554895135595642384915 (0x8A0781F200E75FB293C6968B37DA7213)
Complete name : Бежать нельзя погибнуть [01-02 из 02] (2015) HDTVRip-AVCBezhat.nelzja.pogibnut.(01.seriya.iz.02).2015.HDTVRIP_AVC.[-=DoMiNo=-].mkv
Format : Matroska
Format version : Version 4 / Version 2
File size : 1.19 GiB
Duration : 1h 34mn
Overall bit rate : 1 788 Kbps
Writing application : XviD4PSP 7.0.122
Writing library : Lavf56.15.102

Video
ID : 1
Format : AVC
Format/Info : Advanced Video Codec
Format profile : High@L4.1
Format settings, CABAC : Yes
Format settings, ReFrames : 12 frames
Codec ID : V_MPEG4/ISO/AVC
Duration : 1h 34mn
Bit rate : 1 561 Kbps
Width : 1 024 pixels
Height : 572 pixels
Display aspect ratio : 16:9
Frame rate mode : Constant
Frame rate : 25.000 fps
Color space : YUV
Chroma subsampling : 4:2:0
Bit depth : 8 bits
Scan type : Progressive
Bits/(Pixel*Frame) : 0.107
Stream size : 1.03 GiB (87%)
Writing library : x264 core 146 r2538M 121396c
Encoding settings : cabac=1 / ref=12 / deblock=1:-2:-2 / analyse=0x3:0x133 / me=umh / subme=10 / psy=1 / psy_rd=1,00:0,10 / mixed_ref=1 / me_range=32 / chroma_me=1 / trellis=2 / 8x8dct=1 / cqm=0 / deadzone=21,11 / fast_pskip=0 / chroma_qp_offset=-3 / threads=6 / lookahead_threads=1 / sliced_threads=0 / nr=0 / decimate=1 / interlaced=0 / bluray_compat=0 / constrained_intra=0 / bframes=11 / b_pyramid=2 / b_adapt=2 / b_bias=0 / direct=1 / weightb=1 / open_gop=0 / weightp=2 / keyint=250 / keyint_min=25 / scenecut=40 / intra_refresh=0 / rc=crf / mbtree=0 / crf=19,0 / qcomp=0,60 / qpmin=19 / qpmax=69 / qpstep=4 / ip_ratio=1,40 / pb_ratio=1,30 / aq=1:1,00
Default : Yes
Forced : No
Color range : Limited
Color primaries : BT.709
Transfer characteristics : BT.709
Matrix coefficients : BT.709

Audio
ID : 2
Format : AC-3
Format/Info : Audio Coding 3
Mode extension : CM (complete main)
Format settings, Endianness : Big
Codec ID : A_AC3
Duration : 1h 34mn
Bit rate mode : Constant
Bit rate : 192 Kbps
Channel(s) : 2 channels
Channel positions : Front: L R
Sampling rate : 48.0 KHz
Bit depth : 16 bits
Compression mode : Lossy
Delay relative to video : 27ms
Stream size : 130 MiB (11%)
Language : English
Default : Yes
Forced : No




Скачать Бежать.нельзя.погибнуть.(01-02.из.02).(Александр.Касаткин).[2015.мелодрама.криминал.HDTVRip-AVC].torrent без регистрации
Золото ЗОЛОТАЯ РАЗДАЧА! СКАЧАННОЕ НЕ ЗАСЧИТЫВАЕТСЯ! Золото
Дата: Зарегистрирован   [ Тип: внутренний ] Как тут cкачать?
MAGNET ссылка
MAGNET ссылка


Скачать .torrent

12 KB

Статус: проверено DHT
Скачан: торрент - 138 раз, раздача полностью - 134 раз
Размер: 2,15 GB
Оценка:  - (Голосов: 0)
Поблагодарили: 0
Поделиться ссылкой на эту раздачу с друзьями:
В контактеFacebookОдноклассникиTwitterLivejournalМой МирLiveinternet
 

 
Показать сообщения:    


Вы не можете начинать темы
Вы не можете отвечать на сообщения
Вы не можете редактировать свои сообщения
Вы не можете удалять свои сообщения
Вы не можете голосовать в опросах
Вы не можете прикреплять файлы к сообщениям
Вы можете скачивать файлы