Loading...
Error

Кошелек или жизнь / Trick 'r Treat (Майкл Догерти) [2007, ужасы, триллер, BDRip] [1080p] [Dub]+[Оригинал]+[Sub]x2

 
Автор Сообщение

Marsianka

[] 


Информация о фильме
Русское название: Кошелек или жизнь
Оригинальное название: Trick 'r Treat
Год выхода: 2008
Жанр: ужасы, триллер
Режиссер: Майкл Догерти
Выпущено: США
Продолжительность: 01:22:22
Перевод: Дублированный
В ролях: Куинн Лорд, Брайан Кокс, Дилан Бейкер, Лесли Бибб, Рошелль Эйтс, Анна Пакуин, Монека Делэйн, Тамох Пеникетт, Лоурен Ли Смит, Бритт МакКилип
Сюжет фильма
В четырех пересекающихся друг с другом историях герои нарушают традиции Хэллоуина, наживая себе большие неприятности. Мы познакомимся с учителем, на деле являющимся серийным убийцей; девственницей-студенткой, ждущей своего принца; семейной парой, в которой муж обожает День Всех Святых, а жена не разделяет его восторгов; и группой подростков, задумавших жестокий розыгрыш.
Файл
Качество: BDRip 1080p (исходник Blu-ray Disc)
Видео: 1920x800, 12461 Кбит/сек, 23,976 кадр/сек, AVC, x264, High@L4.1, 2.40:1, 0.338 Бит/[Пиксели*Кадры], 2pass
Аудио 1: AC-3, 384 Кбит/сек, 6 канала(ов), 48,0 КГц - Дублированный / Русский
Аудио 2: AC-3, 640 Кбит/сек, 6 канала(ов), 48,0 КГц - Оригинал / Английский
Субтитры: Русские | Полные, Английские | Полные
Чаптеры: Есть


Автор Рипа: Сообщество:

Format : Matroska
Format version : Version 2
File size : 7.75 GiB
Duration : 1h 22mn
Overall bit rate : 13.5 Mbps
Movie name : Кошелек или жизнь.(2008).BDRip.1080p.[envy]
Encoded date : UTC 2013-11-22 11:19:35
Writing application : mkvmerge v5.8.0 ('No Sleep / Pillow') built on Sep 2 2012 15:37:04
Writing library : libebml v1.2.3 + libmatroska v1.3.0

Video
ID : 1
Format : AVC
Format/Info : Advanced Video Codec
Format profile : High@L4.1
Format settings, CABAC : Yes
Format settings, ReFrames : 5 frames
Codec ID : V_MPEG4/ISO/AVC
Duration : 1h 22mn
Bit rate : 12.5 Mbps
Width : 1 920 pixels
Height : 800 pixels
Display aspect ratio : 2.40:1
Frame rate mode : Constant
Frame rate : 23.976 fps
Color space : YUV
Chroma subsampling : 4:2:0
Bit depth : 8 bits
Scan type : Progressive
Bits/(Pixel*Frame) : 0.338
Stream size : 7.00 GiB (90%)
Title : Кошелек или жизнь.(2008).BDRip.1080p.[envy]
Writing library : x264 core 140 r2377 1ca7bb9
Encoding settings : cabac=1 / ref=5 / deblock=1:-3:-3 / analyse=0x3:0x133 / me=umh / subme=11 / psy=1 / psy_rd=1.00:0.00 / mixed_ref=1 / me_range=32 / chroma_me=1 / trellis=2 / 8x8dct=1 / cqm=0 / deadzone=21,11 / fast_pskip=0 / chroma_qp_offset=-2 / threads=12 / lookahead_threads=2 / sliced_threads=0 / nr=0 / decimate=1 / interlaced=0 / bluray_compat=0 / constrained_intra=0 / bframes=7 / b_pyramid=2 / b_adapt=2 / b_bias=0 / direct=3 / weightb=1 / open_gop=0 / weightp=2 / keyint=240 / keyint_min=23 / scenecut=40 / intra_refresh=0 / rc=2pass / mbtree=0 / bitrate=12461 / ratetol=2.0 / qcomp=0.60 / qpmin=0 / qpmax=69 / qpstep=4 / cplxblur=20.0 / qblur=0.5 / ip_ratio=1.40 / pb_ratio=1.30 / aq=1:0.70
Language : English
Default : Yes
Forced : No

Audio #1
ID : 2
Format : AC-3
Format/Info : Audio Coding 3
Mode extension : CM (complete main)
Format settings, Endianness : Big
Codec ID : A_AC3
Duration : 1h 22mn
Bit rate mode : Constant
Bit rate : 384 Kbps
Channel count : 6 channels
Channel positions : Front: L C R, Side: L R, LFE
Sampling rate : 48.0 KHz
Bit depth : 16 bits
Compression mode : Lossy
Stream size : 226 MiB (3%)
Title : rus
Language : Russian
Default : Yes
Forced : No

Audio #2
ID : 3
Format : AC-3
Format/Info : Audio Coding 3
Mode extension : CM (complete main)
Format settings, Endianness : Big
Codec ID : A_AC3
Duration : 1h 22mn
Bit rate mode : Constant
Bit rate : 640 Kbps
Channel count : 6 channels
Channel positions : Front: L C R, Side: L R, LFE
Sampling rate : 48.0 KHz
Bit depth : 16 bits
Compression mode : Lossy
Stream size : 377 MiB (5%)
Title : eng
Language : English
Default : No
Forced : No

Text #1
ID : 4
Format : UTF-8
Codec ID : S_TEXT/UTF8
Codec ID/Info : UTF-8 Plain Text
Title : rus
Language : Russian
Default : No
Forced : No

Text #2
ID : 5
Format : UTF-8
Codec ID : S_TEXT/UTF8
Codec ID/Info : UTF-8 Plain Text
Title : eng
Language : English
Default : No
Forced : No

Menu
00:00:00.000 : :Chapter 01
00:04:54.002 : :Chapter 02
00:08:30.134 : :Chapter 03
00:11:23.391 : :Chapter 04
00:17:20.873 : :Chapter 05
00:21:51.727 : :Chapter 06
00:24:55.285 : :Chapter 07
00:29:57.170 : :Chapter 08
00:36:45.286 : :Chapter 09
00:39:53.808 : :Chapter 10
00:43:06.375 : :Chapter 11
00:46:06.054 : :Chapter 12
00:49:35.639 : :Chapter 13
00:56:21.378 : :Chapter 14
01:00:47.518 : :Chapter 15
01:03:40.191 : :Chapter 16
01:08:24.850 : :Chapter 17
01:14:42.478 : :Chapter 18
01:17:41.657 : :Chapter 19


При поддержке:
 
Показать сообщения:    


Вы не можете начинать темы
Вы не можете отвечать на сообщения
Вы не можете редактировать свои сообщения
Вы не можете удалять свои сообщения
Вы не можете голосовать в опросах
Вы не можете прикреплять файлы к сообщениям
Вы можете скачивать файлы