Loading...
Error

Скачать Ты, живущий! / Du levande (Рой Андерссон) [2007, драма, комедия, музыка, BDRemux] [DVO]+[AVO (А.Алексеев)]+[Sub]x2 торрент без регистрации

Статистика раздачи
Размер:  14,75 GB   |    Скачан:  101 раз
Сидов:  1  [  0 KB/s  ]  
 
 
 
Автор Сообщение

Marsianka

[] 

Информация о фильме
Название: Ты, живущий!
Оригинальное название: Du levande
Год выпуска: 2007
Жанр: драма, комедия, музыка
Режиссер: Рой Андерссон
В ролях: Джессика Лундберг, Элизабет Хеландер, Бйорн Инглунд, Лейф Ларссон, Олле Олсон, Бригитта Перссон, Кемаль Шенер, Хакан Ангсер, Рольф Энгстрем, Гуннар Иварссон, Эрик Бекман, Патрик Андерс Эдгрен, Леннарт Эрикссон, Пер Фредрикссон, Джессика Нилссон

О фильме: Новый фильм режиссера «Песен со второго этажа» - про шведскую модель конца света. Фильм о человеке, о его величии и его нищете, его радости и печали, его уверенности в себе и страхе. О человеке, над которым нам хочется смеяться и одновременно плакать. Это просто трагическая комедия или комическая трагедия о нас.


Выпущено: Швеция, Германия, Франция, Дания, Норвегия, Япония, 4 1/2 Film, arte France Cinema, Canal+ [fr]
Продолжительность: 01:33:36
Перевод 1: Профессиональный (двухголосый закадровый)
Перевод 2: Авторский (одноголосый закадровый) А.Алексеев

Файл
Формат: MKV
Качество: BDRemux
Видео: MPEG-4 AVC, 20747 Kбит/с, 1920x1080, 24 Кадр/с
Аудио: Русский (AC3, 2 ch, 160 Кбит/с), (AC3, 2 ch, 192 Кбит/с), шведский (DTS-HD MA, 6 ch, 1441 Кбит/с)
Размер: 14.75 ГБ
Субтитры: Русские, английские
Скачать: Сэмпл
General
Unique ID : 252909102057410039316873369020311989707 (0xBE4485730094A0CC95723721B156EDCB)
Complete name : Du.levande.2007.1080p.BDRemux.mkv
Format : Matroska
Format version : Version 4 / Version 2
File size : 14.7 GiB
Duration : 1h 33mn
Overall bit rate mode : Variable
Overall bit rate : 22.6 Mbps
Movie name : Du levande (2007)
Encoded date : UTC 2015-09-04 13:48:45
Writing application : mkvmerge v8.1.0 ('Psychedelic Postcard') 64bit
Writing library : libebml v1.3.1 + libmatroska v1.4.2
DURATION : 01:25:29.747000000
NUMBER_OF_FRAMES : 621
NUMBER_OF_BYTES : 19873
_STATISTICS_WRITING_APP : mkvmerge v8.1.0 ('Psychedelic Postcard') 64bit
_STATISTICS_WRITING_DATE_UTC : 2015-09-04 13:48:45
_STATISTICS_TAGS : BPS DURATION NUMBER_OF_FRAMES NUMBER_OF_BYTES

Video
ID : 1
Format : AVC
Format/Info : Advanced Video Codec
Format profile : High@L4.1
Format settings, CABAC : Yes
Format settings, ReFrames : 3 frames
Codec ID : V_MPEG4/ISO/AVC
Duration : 1h 33mn
Bit rate mode : Variable
Nominal bit rate : 20.8 Mbps
Maximum bit rate : 38.0 Mbps
Width : 1 920 pixels
Height : 1 080 pixels
Display aspect ratio : 16:9
Frame rate mode : Constant
Frame rate : 24.000 fps
Color space : YUV
Chroma subsampling : 4:2:0
Bit depth : 8 bits
Scan type : Progressive
Bits/(Pixel*Frame) : 0.417
Writing library : x264 core 133 r2334 a3ac64b
Encoding settings : cabac=1 / ref=4 / deblock=1:-1:-1 / analyse=0x3:0x133 / me=umh / subme=10 / psy=1 / psy_rd=1.00:0.15 / mixed_ref=1 / me_range=24 / chroma_me=1 / trellis=2 / 8x8dct=1 / cqm=0 / deadzone=21,11 / fast_pskip=1 / chroma_qp_offset=-3 / threads=18 / lookahead_threads=1 / sliced_threads=0 / slices=4 / nr=0 / decimate=1 / interlaced=0 / bluray_compat=1 / constrained_intra=0 / bframes=3 / b_pyramid=1 / b_adapt=1 / b_bias=0 / direct=3 / weightb=1 / open_gop=1 / weightp=1 / keyint=24 / keyint_min=1 / scenecut=40 / intra_refresh=0 / rc_lookahead=24 / rc=2pass / mbtree=1 / bitrate=20750 / ratetol=1.0 / qcomp=0.60 / qpmin=0 / qpmax=69 / qpstep=4 / cplxblur=20.0 / qblur=0.5 / vbv_maxrate=38000 / vbv_bufsize=28000 / nal_hrd=vbr / ip_ratio=1.40 / aq=1:1.00
Language : Swedish
Default : Yes
Forced : No
Color primaries : BT.709
Transfer characteristics : BT.709
Matrix coefficients : BT.709
Color range : Limited

Audio #1
ID : 2
Format : AC-3
Format/Info : Audio Coding 3
Mode extension : CM (complete main)
Format settings, Endianness : Big
Codec ID : A_AC3
Duration : 1h 33mn
Bit rate mode : Constant
Bit rate : 160 Kbps
Channel(s) : 2 channels
Channel positions : Front: L R
Sampling rate : 48.0 KHz
Bit depth : 16 bits
Compression mode : Lossy
Stream size : 107 MiB (1%)
Title : DVO
Language : Russian
Default : Yes
Forced : No

Audio #2
ID : 3
Format : AC-3
Format/Info : Audio Coding 3
Mode extension : CM (complete main)
Format settings, Endianness : Big
Codec ID : A_AC3
Duration : 1h 33mn
Bit rate mode : Constant
Bit rate : 192 Kbps
Channel(s) : 2 channels
Channel positions : Front: L R
Sampling rate : 48.0 KHz
Bit depth : 16 bits
Compression mode : Lossy
Stream size : 129 MiB (1%)
Title : VO (А.Алексеев)
Language : Russian
Default : No
Forced : No

Audio #3
ID : 4
Format : DTS
Format/Info : Digital Theater Systems
Format profile : MA / Core
Mode : 16
Format settings, Endianness : Big
Codec ID : A_DTS
Duration : 1h 33mn
Bit rate mode : Variable
Bit rate : Unknown / 768 Kbps
Channel(s) : 6 channels
Channel positions : Front: L C R, Side: L R, LFE
Sampling rate : 48.0 KHz
Bit depth : 16 bits
Compression mode : Lossless / Lossy
Language : Swedish
Default : No
Forced : No

Text #1
ID : 5
Format : UTF-8
Codec ID : S_TEXT/UTF8
Codec ID/Info : UTF-8 Plain Text
Language : Russian
Default : No
Forced : No

Text #2
ID : 6
Format : UTF-8
Codec ID : S_TEXT/UTF8
Codec ID/Info : UTF-8 Plain Text
Language : English
Default : No
Forced : No

Text #3
ID : 7
Format : PGS
Muxing mode : zlib
Codec ID : S_HDMV/PGS
Codec ID/Info : The same subtitle format used on BDs/HD-DVDs
Language : English
Default : No
Forced : No
Релиз от:



Скачать Ты.живущий!.Du.levande.(Рой.Андерссон).[2007.драма.комедия.музыка.BDRemux].[DVO]+[AVO.(А.Алексеев)]+[Sub]x2.torrent без регистрации
Золото ЗОЛОТАЯ РАЗДАЧА! СКАЧАННОЕ НЕ ЗАСЧИТЫВАЕТСЯ! Золото
Дата: Зарегистрирован   [ Тип: внутренний ] Как тут cкачать?
MAGNET ссылка
MAGNET ссылка


Скачать .torrent

38 KB

Статус: проверено DHT
Скачан: торрент - 101 раз, раздача полностью - 0 раз
Размер: 14,75 GB
Оценка:  - (Голосов: 0)
Поблагодарили: 0
Поделиться ссылкой на эту раздачу с друзьями:
В контактеFacebookОдноклассникиTwitterLivejournalМой МирLiveinternet
 

 
Показать сообщения:    


Вы не можете начинать темы
Вы не можете отвечать на сообщения
Вы не можете редактировать свои сообщения
Вы не можете удалять свои сообщения
Вы не можете голосовать в опросах
Вы не можете прикреплять файлы к сообщениям
Вы можете скачивать файлы