Loading...
Error

Скачать Полинезийские приключения / Tales of the South Seas (01-22 из 22) (Скотт Хартфорд-Дэвис и др.) [1998, приключения, SATRip] [MVO] торрент без регистрации

Статистика раздачи
Размер:  8,72 GB   |    Скачан:  116 раз
Сидов:  1  [  0 KB/s  ]  

 
 
 
Автор Сообщение

МихаНЕзатор

[] 

Информация о Сериале
Название: Полинезийские приключения / Легенды южных морей
Оригинальное название: Tales of the South Seas
Год выхода: 1998
Жанр: приключения
Режиссер: Скотт Хартфорд-Дэвис, Йен Бэрри, Дональд Кромби

В ролях: Уильям Сноу, Рене Науфаху, Рэйчел Блэйкли, Роуэна Кинг, Марк Ли, Кимберли Джозеф, Адриан Райт, Чути Тью, Робин Лоу

Описание: Яркий, красочный сериал по мотивам романа Джека Лондона. Добро пожаловать на борт «Раттлера» — шхуны, управляемой бесстрашным Дэвидом Грифом. Немного бизнесмен, немного обманщик, Гриф никогда не бежит от опасности. Он ищет приключений и прибывает на экзотические и опасные острова Океании, где контрабандисты, гадалки, охотники за удачей, знахари, каперы, попрошайки, нищие — все находятся вместе. Там не существует правил, все действуют, как им заблагорассудится.



Страна: Австралия, Франция
Продолжительность: 22х ~ 46 мин
Перевод: Профессиональный (многоголосый, закадровый) - Лайко

Файл
Формат: AVI
Качество: SATRip
Видео: 640x480, 4:3, XVID, ~1000 Kbps, 25.000 fps
Аудио: 128 Kbps, MP3, 2 channels, 48.0 KHz

АНОНСЫ ПОПУЛЯРНЫХ РАЗДАЧ
Complete name : Tales of the South Seas 01.avi
Format : AVI
Format/Info : Audio Video Interleave
File size : 406 MiB
Duration : 47mn 39s
Overall bit rate : 1 191 Kbps
Writing library : VirtualDub build 32817/release

Video
Format : MPEG-4 Visual
Format profile : Streaming Video@L1
Format settings, BVOP : Yes
Format settings, QPel : No
Format settings, GMC : No warppoints
Format settings, Matrix : Default (H.263)
Muxing mode : Packed bitstream
Codec ID : XVID
Codec ID/Hint : XviD
Duration : 47mn 39s
Bit rate : 1 053 Kbps
Width : 640 pixels
Height : 480 pixels
Display aspect ratio : 4/3
Frame rate : 25.000 fps
Resolution : 24 bits
Colorimetry : 4:2:0
Scan type : Progressive
Bits/(Pixel*Frame) : 0.137
Stream size : 359 MiB (88%)
Writing library : XviD 1.2.1 (UTC 2008-12-04)

Audio
Format : MPEG Audio
Format version : Version 1
Format profile : Layer 3
Codec ID : 55
Codec ID/Hint : MP3
Duration : 47mn 39s
Bit rate mode : Constant
Bit rate : 128 Kbps
Channel(s) : 2 channels
Sampling rate : 48.0 KHz
Resolution : 16 bits
Stream size : 43.6 MiB (11%)
Alignment : Split accross interleaves
Interleave, duration : 40 ms (1.00 video frame)
Interleave, preload duration : 500 ms




Скачать Полинезийские.приключения.Tales.of.the.South.Seas.(01-22.из.22).(Скотт.Хартфорд-Дэвис.и.др.).[1998.приключения.SATRip].[MVO].torrent без регистрации
Золото ЗОЛОТАЯ РАЗДАЧА! СКАЧАННОЕ НЕ ЗАСЧИТЫВАЕТСЯ! Золото
Дата: Зарегистрирован   [ Тип: внутренний ] Как тут cкачать?
MAGNET ссылка
MAGNET ссылка


Скачать .torrent

46 KB

Статус: проверено DHT
Скачан: торрент - 116 раз, раздача полностью - 28 раз
Размер: 8,72 GB
Оценка:  5 (Голосов: 1)
Поблагодарили: 3
Поделиться ссылкой на эту раздачу с друзьями:
В контактеFacebookОдноклассникиTwitterLivejournalМой МирLiveinternet
 

 
Показать сообщения:    


Вы не можете начинать темы
Вы не можете отвечать на сообщения
Вы не можете редактировать свои сообщения
Вы не можете удалять свои сообщения
Вы не можете голосовать в опросах
Вы не можете прикреплять файлы к сообщениям
Вы можете скачивать файлы