Loading...
Error

Скачать [SERIAL] Фарго / Fargo (сезоны 01-02 (Мэтт Шекман и др.) [2014-2015, драма, криминал, WEB-DLRip] [MP4, 640x360] [DVO (Кубик в Кубе)] торрент без регистрации

Статистика раздачи
Размер:  4,77 GB   |    Скачан:  80 раз
Сидов:  6  [  0 KB/s  ]   Личеров:  1  [  0 KB/s  ]  

 
 
 
Автор Сообщение

МихаНЕзатор

[] 

Информация о фильме
Название: Фарго
Оригинальное название: Fargo
Год выхода: 2014
Жанр: Драма, криминал, триллер
Режиссер: Мэтт Шекман, Скотт Уинант, Адам Бернштейн

В ролях: Мартин Фриман, Билли Боб Торнтон, Эллисон Толман, Колин Хэнкс, Боб Оденкёрк, Патрик Уилсон, Кирстен Данст, Джесси Племонс, Тед Дэнсон, Джин Смарт, Энгус Сэмпсон, Адам Аркин, Брэд Манн, Зан МакКларнон, Эмили Хейн, Кейр О'Доннелл, Жюль Хобсон, Анна Каммер, Дэн Бирн, Тодд Манн, Райан О'Нан, Джесси Коллин, Дэйв Бурчилл

О фильме: Бродяга Лорн Малво прибывает в маленький городок штата Миннесота, где начинает подначивать местных жителей на не самые благодушные поступки. Его главной жертвой становится страховой агент Лестер Нигард. В центре сюжета — страховой агент Лестер Нигард, который влачит свое сонное существование, выполняя нудную работу для скучных людей. Внезапно судьба сводит его с Лорном Малво — странным бродягой, уже успевшим заработать себе репутацию жестокого и опасного человека... Десятисерийная адаптация одного из главных фильмов Джоэла и Итана Коэн, которые тут выступают продюсерами и контролируют процесс. При этом сериал «Фарго» не будет точным ремейком фильма 1996-го года, а лишь позаимствует у оригинала общую атмосферу и некоторые сюжетные линии. Вместо Уилльяма Х.Мейси главного героя, записного неудачника, сыграет Мартин Фриман («Шерлок»), он - страховой агент, чей внутренний мир меняется после встречи с убийцей — и он, чтобы почувствовать себя «мужчиной» сам начинает убивать. А Билли Боб Торнтон в сериале в одиночку отдувается за героев Бушеми и Стормаре — впутывает героя Фримана в свои криминальные дела. Пилот снял один из режиссеров сериала «Во все тяжкие» Адам Бернстайн.

Релиз от:

Страна: США
Студия: FX Productions, MGM Television
Продолжительность: 1 x 01:12:13, 19 x ~ 00:50:00
Перевод: Профессиональный (двухголосый) [Кубик в Кубе]

Файл
Формат: MP4
Качество: WEB-DLRip | КПК
Видео: MPEG-4 AVC (x264), 640x360, ~500 kbps, 23.976 fps
Аудио: AAC LC, 48.0 KHz, 2 ch, 128 Kbps
Субтитры: Нет

АНОНСЫ ПОПУЛЯРНЫХ РАЗДАЧ


Торрент обновлён, собраны два сезона в хорошем качестве!

1 Cезон:
01. Крокодиловая дилемма / The Crocodile's Dilemma
02. Принц-петух / The Rooster Prince
03. Дорога принятия решений / A Muddy Road
04. Съедая улику / Eating the Blame
05. Шесть непостижимых / The Six Ungraspables
06. Буриданов осёл / Buridan's Ass
07. Кто бреет брадобрея / Who Shaves the Barber?
08. Завал / The Heap
09. Лиса, кролик и капуста / A Fox, a Rabbit, and a Cabbage
10. Вилка Мортона / Morton's Fork
2 Сезон:
01. В ожидании неприятностей / Waiting for Dutch
02. Перед законом / Before The Law
03. Миф о Сизифе / The Myth Of Sisyphus
04. Страх и трепет / Fear And Trembling
05. Дары волхвов / The Gift of the Magi
06. Носорог / Rhinoceros
07. "Это ты сделал". - "Нет, ты!" / Did You Do This? No, You Did It!
08. Лоплоп / Loplop
09. Замок / The Castle
10. Палиндром / Palindrome
Complete name : E:KinoFargo.AVC.KPK.GFFargo.S01.2014.AVC.WEB-DLRip.KPK.KvK.GFFargo.s01e03.2014.AVC.WEB-DLRip.KPK.KvK.GF.mp4
Format : MPEG-4
Codec ID : M4V
File size : 225 MiB
Duration : 49mn 37s
Overall bit rate mode : Variable
Overall bit rate : 634 Kbps
Writing application : Lavf53.19.0

Video
ID : 1
Format : AVC
Format/Info : Advanced Video Codec
Format profile : High@L4.1
Format settings, CABAC : Yes
Format settings, ReFrames : 8 frames
Codec ID : avc1
Codec ID/Info : Advanced Video Coding
Duration : 49mn 37s
Source duration : 20mn 59s
Bit rate : 500 Kbps
Width : 640 pixels
Height : 360 pixels
Display aspect ratio : 16:9
Frame rate mode : Constant
Frame rate : 23.976 fps
Color space : YUV
Chroma subsampling : 4:2:0
Bit depth : 8 bits
Scan type : Progressive
Bits/(Pixel*Frame) : 0.091
Stream size : 177 MiB (79%)
Source stream size : 177 MiB (79%)
Writing library : x264 core 130 r2273 b3065e6
Encoding settings : cabac=1 / ref=8 / deblock=1:-2:-2 / analyse=0x3:0x133 / me=umh / subme=10 / psy=1 / psy_rd=1.00:0.00 / mixed_ref=1 / me_range=24 / chroma_me=1 / trellis=2 / 8x8dct=1 / cqm=0 / deadzone=21,11 / fast_pskip=1 / chroma_qp_offset=-2 / threads=3 / lookahead_threads=1 / sliced_threads=0 / nr=0 / decimate=0 / interlaced=0 / bluray_compat=0 / constrained_intra=0 / bframes=8 / b_pyramid=2 / b_adapt=2 / b_bias=0 / direct=3 / weightb=1 / open_gop=0 / weightp=2 / keyint=240 / keyint_min=121 / scenecut=40 / intra_refresh=0 / rc_lookahead=40 / rc=2pass / mbtree=1 / bitrate=500 / ratetol=1.0 / qcomp=0.60 / qpmin=0 / qpmax=69 / qpstep=4 / cplxblur=20.0 / qblur=0.5 / ip_ratio=1.40 / aq=1:1.00
mdhd_Duration : 2977688

Audio
ID : 2
Format : AAC
Format/Info : Advanced Audio Codec
Format profile : LC
Codec ID : 40
Duration : 49mn 37s
Bit rate mode : Variable
Bit rate : 128 Kbps
Channel(s) : 2 channels
Channel positions : Front: L R
Sampling rate : 48.0 KHz
Compression mode : Lossy
Stream size : 45.4 MiB (20%)




Скачать Фарго.Fargo.(сезоны.01-02.(Мэтт.Шекман.и.др.).[2014-2015.драма.криминал.WEB-DLRip].[MP4.640x360].[DVO.(Кубик.в.Кубе)].torrent без регистрации
Золото ЗОЛОТАЯ РАЗДАЧА! СКАЧАННОЕ НЕ ЗАСЧИТЫВАЕТСЯ! Золото
Дата: Зарегистрирован   [ Тип: внешний ] Как тут cкачать?
MAGNET ссылка
MAGNET ссылка


Скачать .torrent

15 KB

Статус: проверено DHT
Скачан: торрент - 80 раз, раздача полностью - 8 раз
Размер: 4,77 GB
Оценка:  - (Голосов: 0)
Поблагодарили: 2
Поделиться ссылкой на эту раздачу с друзьями:
В контактеFacebookОдноклассникиTwitterLivejournalМой МирLiveinternet
 

 
Показать сообщения:    


Вы не можете начинать темы
Вы не можете отвечать на сообщения
Вы не можете редактировать свои сообщения
Вы не можете удалять свои сообщения
Вы не можете голосовать в опросах
Вы не можете прикреплять файлы к сообщениям
Вы можете скачивать файлы