Loading...
Error

Скачать Смертельная гонка / Death Race (Пол У. С. Андерсон) [2008, фантастика, боевик, триллер, BDRip] [1080p] [Dub] [Лицензия] [Unrated] торрент без регистрации

Статистика раздачи
Размер:  3,84 GB   |    Скачан:  131 раз
Сидов:  1  [  0 KB/s  ]  
 
 

Понравился ли вам этот фильм?

Да   100%  100%  [ 2 ]
Нет   0%  0%  [ 0 ]
Не собираюсь смотреть   0%  0%  [ 0 ]

Всего проголосовало : 2

 
Автор Сообщение

Woodworker

[] 


Смертельная гонка / Death Race


Год выпуска: 2008
Выпущено: США, Германия, Великобритания
Жанр: фантастика, боевик, триллер
Продолжительность: 01:50:35
Перевод: Профессиональный (полное дублирование) [лицензия]

Режиссер: Пол У. С. Андерсон

В ролях: Джейсон Стэйтем, Джоан Аллен, Иэн МакШейн, Тайриз Гибсон, Натали Мартинес, Макс Райан, Джейсон Кларк, Фредерик Колер, Джейкоб Варгас, Джастин Мэдер

Описание: Трехкратный чемпион-гонщик Дженсен Эймс посажен в тюрьму за убийство, которого не совершал. Вместо того, чтобы выпустить его на свободу, тюремщики заставляют его вместе с самыми отъявленными преступниками участвовать в кровавом состязании. Оказавшись за рулем чудовищного автомобиля, оборудованного автоматами, огнеметами и гранатометами, этот отчаянный человек разрушит все на своем пути, чтобы выиграть самую зрелищную гонку на выживание на Земле.







Качество: BDRip 1080p
Формат: MKV
Видео кодек: H.264
Аудио кодек: AC3
Видео: 1920x816 (2.35:1), 23,976 fps, AVC (H.264), High@L4.0, ~4427 Kbps avg, 0.118 bit/pixel
Аудио: 48 kHz, AC3 Dolby Digital, 3/2 (L,C,R,l,r) + LFE ch, ~448.00 kbps

General
Unique ID : 228128847973184708630372421174095090130 (0xABA004984E73740782F25C028F5D91D2)
Complete name : J:\Сборка\Смертельная гонка. - Death.Race.2008.UNRATED.1080p.BluRay.AC3.x264.mkv
Format : Matroska
Format version : Version 4 / Version 2
File size : 3.84 GiB
Duration : 1h 50mn
Overall bit rate mode : Variable
Overall bit rate : 4 974 Kbps
Encoded date : UTC 2015-09-26 20:26:41
Writing application : mkvmerge v7.3.0 ('Nouages') 32bit built on Oct 22 2014 18:44:01
Writing library : libebml v1.3.0 + libmatroska v1.4.1
DURATION : 01:50:35.872000000
NUMBER_OF_FRAMES : 207371
NUMBER_OF_BYTES : 371608832
_STATISTICS_WRITING_APP : mkvmerge v7.3.0 ('Nouages') 32bit built on Oct 22 2014 18:44:01
_STATISTICS_WRITING_DATE_UTC : 2015-09-26 20:26:41
_STATISTICS_TAGS : BPS DURATION NUMBER_OF_FRAMES NUMBER_OF_BYTES
Video #1
ID : 1
Format : AVC
Format/Info : Advanced Video Codec
Format profile : High@L4.0
Format settings, CABAC : Yes
Format settings, ReFrames : 4 frames
Codec ID : V_MPEG4/ISO/AVC
Duration : 1h 50mn
Bit rate mode : Variable
Bit rate : 4 427 Kbps
Maximum bit rate : 25.0 Mbps
Width : 1 920 pixels
Height : 816 pixels
Display aspect ratio : 2.35:1
Frame rate mode : Constant
Frame rate : 23.976 fps
Color space : YUV
Chroma subsampling : 4:2:0
Bit depth : 8 bits
Scan type : Progressive
Bits/(Pixel*Frame) : 0.118
Stream size : 3.42 GiB (89%)
Writing library : x264 core 148 r2579 73ae2d1
Encoding settings : cabac=1 / ref=4 / deblock=1:-2:-2 / analyse=0x3:0x133 / me=tesa / subme=11 / psy=1 / psy_rd=1.00:0.15 / mixed_ref=1 / me_range=24 / chroma_me=1 / trellis=2 / 8x8dct=1 / cqm=0 / deadzone=21,11 / fast_pskip=0 / chroma_qp_offset=-3 / threads=12 / lookahead_threads=1 / sliced_threads=0 / nr=0 / decimate=1 / interlaced=0 / bluray_compat=0 / constrained_intra=0 / bframes=5 / b_pyramid=2 / b_adapt=2 / b_bias=0 / direct=3 / weightb=1 / open_gop=0 / weightp=2 / keyint=240 / keyint_min=24 / scenecut=40 / intra_refresh=0 / rc_lookahead=60 / rc=crf / mbtree=1 / crf=23.5 / qcomp=0.60 / qpmin=0 / qpmax=69 / qpstep=4 / vbv_maxrate=25000 / vbv_bufsize=25000 / crf_max=0.0 / nal_hrd=vbr / filler=0 / ip_ratio=1.40 / aq=1:1.00
Default : Yes
Forced : No
Audio #2
ID : 2
Format : AC-3
Format/Info : Audio Coding 3
Mode extension : CM (complete main)
Format settings, Endianness : Big
Codec ID : A_AC3
Duration : 1h 50mn
Bit rate mode : Constant
Bit rate : 448 Kbps
Channel(s) : 6 channels
Channel positions : Front: L C R, Side: L R, LFE
Sampling rate : 48.0 KHz
Bit depth : 16 bits
Compression mode : Lossy
Stream size : 354 MiB (9%)
Default : Yes
Forced : No





Скачать Смертельная.гонка.Death.Race.(Пол.У.С.Андерсон).[2008.фантастика.боевик.триллер.BDRip].[1080p].[Dub].[Лицензия].[Unrated].torrent без регистрации
Золото ЗОЛОТАЯ РАЗДАЧА! СКАЧАННОЕ НЕ ЗАСЧИТЫВАЕТСЯ! Золото
Дата: Зарегистрирован   [ Тип: внутренний ] Как тут cкачать?
MAGNET ссылка
MAGNET ссылка


Скачать .torrent

19 KB

Статус: проверено DHT
Скачан: торрент - 131 раз, раздача полностью - 1 раз
Размер: 3,84 GB
Оценка:  - (Голосов: 0)
Поблагодарили: 4
Поделиться ссылкой на эту раздачу с друзьями:
В контактеFacebookОдноклассникиTwitterLivejournalМой МирLiveinternet
 

 

Woodworker

[] 

Скачал сам, помоги скачать другому
 
Показать сообщения:    


Вы не можете начинать темы
Вы не можете отвечать на сообщения
Вы не можете редактировать свои сообщения
Вы не можете удалять свои сообщения
Вы не можете голосовать в опросах
Вы не можете прикреплять файлы к сообщениям
Вы можете скачивать файлы