Loading...
Error

Скачать Рики и Флэш / Ricki and the Flash (Джонатан Демме) [2015, Драма, комедия, музыка, BDRip][1080p][DUB][R.G.GoldenShara] торрент без регистрации

Статистика раздачи
Размер:  4,37 GB   |    Скачан:  125 раз

Полного источника не было: 3 месяца 11 дней

 
 
 
Автор Сообщение

Magnetto83

[] 


Рики и Флэш / Ricki and the Flash


Год выпуска: 2015
Выпущено: США (TriStar Pictures)
Жанр: Драма, комедия, музыка
Продолжительность: 01:41:27
Перевод: Профессиональный (полное дублирование)
Субтитры: Русские, Английские, Украинские
Навигация по главам: Есть

Режиссер: Джонатан Демме

Слоган: «Когда мама младше дочки»

В ролях: Мэрил Стрип, Мэми Гаммер, Кевин Клайн, Одра МакДональд, Себастьян Стэн, Рик Спрингфилд, Рик Росас, Джо Витале, Берни Уоррелл, Бен Платт

Описание: История экстравагантной творческой личности, которая неожиданно возвращается в дом к своему бывшему мужу спустя много лет жизни вдали от него и детей.



Возраст: 16+

Качество: BDRip 1080p
Формат: MKV
Видео кодек: H.264
Аудио кодек: AC3
Видео: 1920x804 (2.40:1), 5519 kbps, 23.976 fps
Аудио: Русский, 6 ch, 640 Кбит/с Лицензия - Blu-Ray CEE


Сюжет фильма очень интересен: старуха рок-певица, словно кукушка, бросила мужа и троих детей ради дурацкой музыки, спустя много лет нашей Рики(Мерил Стрип) выпадает последний шанс соприкоснуться с семьёй, старшую дочь Джулию (Мэми Гамерр, кстати настоящая дочь Мерил Стрип) бросил муж и она впала в глубокую депрессию. Надо помочь девушке пройти этот нелёгкий путь.



x264 [info]: frame I:918 Avg QP:17.93 size:136444
x264 [info]: frame P:31151 Avg QP:20.52 size: 59637
x264 [info]: frame B:106597 Avg QP:22.32 size: 22270
x264 [info]: consecutive B-frames: 1.2% 2.9% 5.5% 42.6% 14.1% 22.8% 5.4% 5.1% 0.3%
x264 [total]: encoded 145945 frames, 0.82 fps, 5519.76 kb/s



General
Complete name : Рики И Флеш 2015 Dub Rus BDRip 1080p.mkv
Format : Matroska
Format version : Version 4 / Version 2
File size : 4.37 GiB
Duration : 1h 41mn
Overall bit rate : 6 162 Kbps
Movie name : Рики И Флеш 2015 Dub Rus BDRip 1080p Rip By Magnetto 83
Encoded date : UTC 2016-01-02 10:35:33
Writing application : mkvmerge v7.0.0 ('Where We Going') 64bit built on Jun 9 2014 15:16:27
Writing library : libebml v1.3.0 + libmatroska v1.4.1
_STATISTICS_WRITING_APP : mkvmerge v7.0.0 ('Where We Going') 64bit built on Jun 9 2014 15:16:27
_STATISTICS_WRITING_DATE_UTC : 2016-01-02 10:35:33
_STATISTICS_TAGS : BPS DURATION NUMBER_OF_FRAMES NUMBER_OF_BYTES
DURATION : 01:33:20.897000000
NUMBER_OF_FRAMES : 1088
NUMBER_OF_BYTES : 36365

Video
ID : 1
Format : AVC
Format/Info : Advanced Video Codec
Format profile : High@L4.1
Format settings, CABAC : Yes
Format settings, ReFrames : 5 frames
Codec ID : V_MPEG4/ISO/AVC
Duration : 1h 41mn
Bit rate : 5 519 Kbps
Width : 1 920 pixels
Height : 804 pixels
Display aspect ratio : 2.40:1
Frame rate mode : Constant
Frame rate : 23.976 fps
Color space : YUV
Chroma subsampling : 4:2:0
Bit depth : 8 bits
Scan type : Progressive
Bits/(Pixel*Frame) : 0.149
Stream size : 3.83 GiB (88%)
Title : Рики И Флеш 1080
Writing library : x264 core 146 r2538 121396c
Encoding settings : cabac=1 / ref=5 / deblock=1:-3:-3 / analyse=0x3:0x113 / me=umh / subme=11 / psy=1 / psy_rd=1.00:0.00 / mixed_ref=1 / me_range=32 / chroma_me=1 / trellis=2 / 8x8dct=1 / cqm=0 / deadzone=21,11 / fast_pskip=0 / chroma_qp_offset=-2 / threads=3 / lookahead_threads=1 / sliced_threads=0 / nr=0 / decimate=1 / interlaced=0 / bluray_compat=0 / constrained_intra=0 / bframes=8 / b_pyramid=2 / b_adapt=2 / b_bias=0 / direct=3 / weightb=1 / open_gop=0 / weightp=2 / keyint=250 / keyint_min=23 / scenecut=40 / intra_refresh=0 / rc=2pass / mbtree=0 / bitrate=5519 / ratetol=1.0 / qcomp=0.60 / qpmin=0 / qpmax=69 / qpstep=4 / cplxblur=20.0 / qblur=0.5 / ip_ratio=1.40 / pb_ratio=1.30 / aq=2:1.00
Default : Yes
Forced : No

Audio
ID : 2
Format : AC-3
Format/Info : Audio Coding 3
Mode extension : CM (complete main)
Format settings, Endianness : Big
Codec ID : A_AC3
Duration : 1h 41mn
Bit rate mode : Constant
Bit rate : 640 Kbps
Channel(s) : 6 channels
Channel positions : Front: L C R, Side: L R, LFE
Sampling rate : 48.0 KHz
Compression mode : Lossy
Stream size : 464 MiB (10%)
Title : Dub | DD 5.1 @ 640 kbps - Blu-Ray CEE
Language : Russian
Default : Yes
Forced : No

Text #1
ID : 3
Format : UTF-8
Codec ID : S_TEXT/UTF8
Codec ID/Info : UTF-8 Plain Text
Title : Blu-Ray
Language : Russian
Default : No
Forced : No

Text #2
ID : 4
Format : UTF-8
Codec ID : S_TEXT/UTF8
Codec ID/Info : UTF-8 Plain Text
Title : Blu-Ray
Language : Ukrainian
Default : No
Forced : No

Text #3
ID : 5
Format : UTF-8
Codec ID : S_TEXT/UTF8
Codec ID/Info : UTF-8 Plain Text
Title : Full
Language : English
Default : No
Forced : No

Menu
00:00:00.000 : en:(01)00:00:00:000
00:07:27.863 : en:(02)00:07:27:863
00:12:49.184 : en:(03)00:12:49:184
00:19:04.308 : en:(04)00:19:04:308
00:24:38.727 : en:(05)00:24:38:727
00:28:08.228 : en:(06)00:28:08:228
00:34:20.224 : en:(07)00:34:20:224
00:41:59.391 : en:(08)00:41:59:391
00:45:36.525 : en:(09)00:45:36:525
00:49:36.431 : en:(10)00:49:36:431
00:56:05.402 : en:(11)00:56:05:402
01:03:27.929 : en:(12)01:03:27:929
01:08:03.661 : en:(13)01:08:03:661
01:18:05.262 : en:(14)01:18:05:262
01:23:02.268 : en:(15)01:23:02:268
01:30:18.496 : en:(16)01:30:18:496







Скачать Рики.и.Флэш.Ricki.and.the.Flash.(Джонатан.Демме).[2015.Драма.комедия.музыка.BDRip][1080p][DUB][R.G.GoldenShara].torrent без регистрации
Золото ЗОЛОТАЯ РАЗДАЧА! СКАЧАННОЕ НЕ ЗАСЧИТЫВАЕТСЯ! Золото
Дата: Зарегистрирован   [ Тип: внутренний ] Как тут cкачать?
MAGNET ссылка
MAGNET ссылка


Скачать .torrent

11 KB

Статус: проверено
Скачан: торрент - 125 раз, раздача полностью - 19 раз
Размер: 4,37 GB
Оценка:  5 (Голосов: 5)
Поблагодарили: 12
Поделиться ссылкой на эту раздачу с друзьями:
В контактеFacebookОдноклассникиTwitterLivejournalМой МирLiveinternet
 

 

Magnetto83

[] 

az !!!ВСЕМ ПРИЯТНОГО ПРОСМОТРА И ПОЗИТИВНЫХ ЭМОЦИЙ!!! az

ad Друзья, поздравляю Вас с Новым Годом и наступающим Рождеством Христовым!!! ad

br Здоровья, Любви, Достатка, Тепла, Уюта, Благополучия Вам, Вашим Семьям и Близким Для Вас Людям! bs
 

eddiefender

[] 

А эту раздачу восстановить возможно?
 

eddiefender

[] 

Благодарю!
 

Magnetto83

[] 

ab Пожалуйста! az
 
Показать сообщения:    


Вы не можете начинать темы
Вы не можете отвечать на сообщения
Вы не можете редактировать свои сообщения
Вы не можете удалять свои сообщения
Вы не можете голосовать в опросах
Вы не можете прикреплять файлы к сообщениям
Вы можете скачивать файлы