Loading...
Error

Скачать Стелс / Stealth (Роб Коэн) [2005, Фантастика, боевик, триллер, приключения, BDRip][1080p][DUB][R.G. GoldenShara] торрент без регистрации

Статистика раздачи
Размер:  4,36 GB   |    Скачан:  230 раз
Сидов:  1  [  0 KB/s  ]  
 
 
 
Автор Сообщение

Magnetto83

[] 


Стелс / Stealth


Год выпуска: 2005
Выпущено: США (Columbia Pictures Corporation)
Жанр: Фантастика, боевик, триллер, приключения
Продолжительность: 02:00:44
Перевод: Профессиональный (полное дублирование)
Субтитры: Русские, Английские
Навигация по главам: Нет

Режиссер: Роб Коэн

Слоган: «Fear The Sky»

В ролях: Джош Лукас, Джессика Бил, Джейми Фокс, Сэм Шепард, Ричард Роксбург, Джо Мортон, Йен Блисс, Эбон Мосс-Бакрак, Майкл Денкха, Роки Хелтон

Описание: На военно-морскую авиабазу доставлен искусственный интеллект, который должен обучиться у настоящего пилота управлению боевым самолетом. По мере роста боевой и политической подготовленности, ИскИн приобретает также некоторые идеи, определенно вредные для мира во всем мире.



Возраст: 12+

Качество: BDRip 1080p
Формат: MKV
Видео кодек: H.264
Аудио кодек: AC3
Видео: 1920x800 (2.40:1), 4726 kbps, 23.976 fps
Аудио: Русский, 6 ch, 448 Кбит/с Лицензия


x264 [info]: frame I:972 Avg QP:19.97 size:106045
x264 [info]: frame P:52850 Avg QP:22.21 size: 40226
x264 [info]: frame B:119866 Avg QP:24.36 size: 17101
x264 [info]: consecutive B-frames: 9.3% 8.5% 14.6% 13.1% 11.6% 37.1% 4.4% 1.0% 0.4%
x264 [total]: encoded 173688 frames, 1.00 fps, 4725.28 kb/s



General
Complete name : I:\HD VIDEO\Собственные Рипы 1080р\Стелс 2005 Dub Rus BDRip 1080p.mkv
Format : Matroska
Format version : Version 2
File size : 4.36 GiB
Duration : 2h 0mn
Overall bit rate : 5 175 Kbps
Movie name : Стелс 2005 Dub Rus BDRip 1080p By Magnetto 83
Encoded date : UTC 2016-01-20 10:43:19
Writing application : mkvmerge v5.2.0 ('I can't explain') built on Dec 18 2011 18:12:03
Writing library : libebml v1.2.3 + libmatroska v1.3.0

Video
ID : 1
Format : AVC
Format/Info : Advanced Video Codec
Format profile : High@L4.1
Format settings, CABAC : Yes
Format settings, ReFrames : 5 frames
Codec ID : V_MPEG4/ISO/AVC
Duration : 2h 0mn
Bit rate : 4 726 Kbps
Width : 1 920 pixels
Height : 800 pixels
Display aspect ratio : 2.40:1
Frame rate mode : Constant
Frame rate : 23.976 fps
Color space : YUV
Chroma subsampling : 4:2:0
Bit depth : 8 bits
Scan type : Progressive
Bits/(Pixel*Frame) : 0.128
Stream size : 3.90 GiB (89%)
Writing library : x264 core 146 r2538 121396c
Encoding settings : cabac=1 / ref=5 / deblock=1:-1:-1 / analyse=0x3:0x113 / me=umh / subme=10 / psy=1 / psy_rd=1.00:0.00 / mixed_ref=1 / me_range=32 / chroma_me=1 / trellis=2 / 8x8dct=1 / cqm=0 / deadzone=21,11 / fast_pskip=0 / chroma_qp_offset=-2 / threads=3 / lookahead_threads=1 / sliced_threads=0 / nr=0 / decimate=1 / interlaced=0 / bluray_compat=0 / constrained_intra=0 / bframes=8 / b_pyramid=2 / b_adapt=2 / b_bias=0 / direct=3 / weightb=1 / open_gop=0 / weightp=2 / keyint=250 / keyint_min=23 / scenecut=40 / intra_refresh=0 / rc=2pass / mbtree=0 / bitrate=4726 / ratetol=1.0 / qcomp=0.60 / qpmin=0 / qpmax=69 / qpstep=4 / cplxblur=20.0 / qblur=0.5 / ip_ratio=1.40 / pb_ratio=1.30 / aq=2:1.00
Default : Yes
Forced : No

Audio
ID : 2
Format : AC-3
Format/Info : Audio Coding 3
Mode extension : CM (complete main)
Format settings, Endianness : Big
Codec ID : A_AC3
Duration : 2h 0mn
Bit rate mode : Constant
Bit rate : 448 Kbps
Channel(s) : 6 channels
Channel positions : Front: L C R, Side: L R, LFE
Sampling rate : 48.0 KHz
Compression mode : Lossy
Stream size : 387 MiB (9%)
Title : DD 5.1 Dub Rus 448kbps
Language : Russian
Default : Yes
Forced : No

Text #1
ID : 3
Format : UTF-8
Codec ID : S_TEXT/UTF8
Codec ID/Info : UTF-8 Plain Text
Language : Russian
Default : No
Forced : No

Text #2
ID : 4
Format : UTF-8
Codec ID : S_TEXT/UTF8
Codec ID/Info : UTF-8 Plain Text
Language : English
Default : No
Forced : No







Скачать Стелс.Stealth.(Роб.Коэн).[2005.Фантастика.боевик.триллер.приключения.BDRip][1080p][DUB][R.G.GoldenShara].torrent без регистрации
Золото ЗОЛОТАЯ РАЗДАЧА! СКАЧАННОЕ НЕ ЗАСЧИТЫВАЕТСЯ! Золото
Дата: Зарегистрирован   [ Тип: внутренний ] Как тут cкачать?
MAGNET ссылка
MAGNET ссылка


Скачать .torrent

11 KB

Статус: проверено
Скачан: торрент - 230 раз, раздача полностью - 77 раз
Размер: 4,36 GB
Оценка:  5 (Голосов: 7)
Поблагодарили: 13
Поделиться ссылкой на эту раздачу с друзьями:
В контактеFacebookОдноклассникиTwitterLivejournalМой МирLiveinternet
 

 

sobmaster

[] 

Хороший фильм, динамичный, постоянно держит в напряжении... ay Смотрел сто лет назад, вчера пересмотрел как в первый раз... ag
Magnetto83, спасибо за рип, дружище, очень классный релиз немного подзабытого блокбастера! az
 

Magnetto83

[] 

az Пожалуйста, мой друг!!! И спасибо за добрый отзыв bs 2005 год принес очень много классных фильмов!!! ay В том числе и "Стелс". Я еще не раз буду возвращаться к этому году за интересной киношкой ag
 

Adminny

[] 

Помогите скачать.
 

Magnetto83

[] 

ab Раздача будет завтра с утра! Просьба к желающим, быть на протяжениии завтрашнего дня на закачке! ad
 

Adminny

[] 

Большое спасибо! Скачал. Фильм - супер.
 

Magnetto83

[] 

ab Пожалуйста! az
 
Показать сообщения:    


Вы не можете начинать темы
Вы не можете отвечать на сообщения
Вы не можете редактировать свои сообщения
Вы не можете удалять свои сообщения
Вы не можете голосовать в опросах
Вы не можете прикреплять файлы к сообщениям
Вы можете скачивать файлы