Loading...
Error

Скачать [SERIAL] Агент Картер / Agent Carter (сезон 02) (Луис Д’Эспозито и др.) [2016, боевик, драма, фантастика, WEB-DLRip] [MP4, 640x360] [MVO (LostFilm)] торрент без регистрации

Статистика раздачи
Размер:  1,88 GB   |    Скачан:  93 раза
Сидов:  1  [  0 KB/s  ]  
 
 
 
Автор Сообщение

МихаНЕзатор

[] 

• Агент Картер / Agent Carter •


Страна: США
Производство: ABC Studios, Marvel Television
Год выпуска: 2016
Жанр: фантастика, боевик, приключен
Режиссёр: Стивен Крегг, Луис Д’Эспозито, Питер Лет

В ролях: Хэйли Этвелл, Гьокай Гьокай, Джеймс Д'Арси, Чэд Майкл Мюррей, Линдси Фонсека, Аэдин Адамс, Кайл Борнхеймер, Миген Фэй, Бриджет Риган, Ши Уигхэм и др.

Описание: История Пегги Картер. В 1946 году мир нанес Пегги серьезный удар, когда она оказывается в неудобном для нее положении с возвращением домой мужчин со сражений за границей. Работая на секретную организацию СНР (Стратегический Научный Резерв), Пегги должна найти баланс между административной работой и секретными миссиями для Говарда Старка, одновременно пытаясь жить нормальной жизнью одинокой женщины в Америке после утраты любви всей ее жизни — Стива Роджерса.



Качество: WEB-DLRip
Продолжительность: по ~ 00:43:00
Перевод: Профессиональный (многоголосый закадровый) от LostFilm

Формат: MP4
Видео кодек: H.264 AVC
Аудио кодек: AAC-LC
Свойства видео: 640x360 (16:9), 23.976 fps, 500 kbps (0.091 bit/pixel)
Свойства аудио: 48.0 KHz, 2 ch, 128 kbps

АНОНСЫ ПОПУЛЯРНЫХ РАЗДАЧ


Торрент обновлён, добавлена 10-я серия!
General
Complete name : Marvels.Agent.Carter.S02E01.WEB-DLRip.rus.LostFilm.mp4
Format : MPEG-4
Format profile : Base Media
Codec ID : isom (isom/avc1/iso6)
File size : 192 MiB
Duration : 42mn 27s
Overall bit rate mode : Variable
Overall bit rate : 632 Kbps
Encoded date : UTC 2016-01-21 20:55:32
Tagged date : UTC 2016-01-21 20:55:32

Video
ID : 1
Format : AVC
Format/Info : Advanced Video Codec
Format profile : High@L4.1
Format settings, CABAC : Yes
Format settings, ReFrames : 9 frames
Codec ID : avc1
Codec ID/Info : Advanced Video Coding
Duration : 42mn 27s
Bit rate : 500 Kbps
Maximum bit rate : 1 471 Kbps
Width : 640 pixels
Height : 360 pixels
Display aspect ratio : 16:9
Frame rate mode : Constant
Frame rate : 23.976 (24000/1001) fps
Color space : YUV
Chroma subsampling : 4:2:0
Bit depth : 8 bits
Scan type : Progressive
Bits/(Pixel*Frame) : 0.091
Stream size : 152 MiB (79%)
Title : 264@GPAC0.5.2-DEV-rev248-g39d5978-master
Writing library : x264 core 146 r2538 121396c
Encoding settings : cabac=1 / ref=9 / deblock=1:-3:-3 / analyse=0x3:0x113 / me=umh / subme=11 / psy=1 / psy_rd=1.00:0.00 / mixed_ref=1 / me_range=32 / chroma_me=1 / trellis=2 / 8x8dct=1 / cqm=0 / deadzone=21,11 / fast_pskip=0 / chroma_qp_offset=-2 / threads=6 / lookahead_threads=1 / sliced_threads=0 / nr=0 / decimate=0 / interlaced=0 / bluray_compat=0 / constrained_intra=0 / bframes=9 / b_pyramid=2 / b_adapt=2 / b_bias=0 / direct=3 / weightb=1 / open_gop=0 / weightp=2 / keyint=240 / keyint_min=23 / scenecut=40 / intra_refresh=0 / rc=2pass / mbtree=0 / bitrate=500 / ratetol=1.0 / qcomp=0.60 / qpmin=0 / qpmax=69 / qpstep=4 / cplxblur=20.0 / qblur=0.5 / ip_ratio=1.40 / pb_ratio=1.30 / aq=1:1.00
Encoded date : UTC 2016-01-21 20:55:32
Tagged date : UTC 2016-01-21 20:55:54

Audio
ID : 2
Format : AAC
Format/Info : Advanced Audio Codec
Format profile : LC
Codec ID : 40
Duration : 42mn 27s
Bit rate mode : Variable
Bit rate : 128 Kbps
Maximum bit rate : 157 Kbps
Channel(s) : 2 channels
Channel positions : Front: L R
Sampling rate : 48.0 KHz
Frame rate : 46.875 fps (1024 spf)
Compression mode : Lossy
Stream size : 38.8 MiB (20%)
Encoded date : UTC 2016-01-21 18:47:56
Tagged date : UTC 2016-01-21 20:55:54



Скачать Агент.Картер.Agent.Carter.(сезон.02).(Луис.Д’Эспозито.и.др.).[2016.боевик.драма.фантастика.WEB-DLRip].[MP4.640x360].[MVO.(LostFilm)].torrent без регистрации
Золото ЗОЛОТАЯ РАЗДАЧА! СКАЧАННОЕ НЕ ЗАСЧИТЫВАЕТСЯ! Золото
Дата: Зарегистрирован   [ Тип: внутренний ] Как тут cкачать?
MAGNET ссылка
MAGNET ссылка


Скачать .torrent

21 KB

Статус: проверено DHT
Скачан: торрент - 93 раз, раздача полностью - 7 раз
Размер: 1,88 GB
Оценка:  - (Голосов: 0)
Поблагодарили: 1
Поделиться ссылкой на эту раздачу с друзьями:
В контактеFacebookОдноклассникиTwitterLivejournalМой МирLiveinternet
 

 
Показать сообщения:    


Вы не можете начинать темы
Вы не можете отвечать на сообщения
Вы не можете редактировать свои сообщения
Вы не можете удалять свои сообщения
Вы не можете голосовать в опросах
Вы не можете прикреплять файлы к сообщениям
Вы можете скачивать файлы