Loading...
Error

Скачать Секретные материалы / X-Files (01х01-02 из 06) (Крис Картер и др.) [2016, фантастика, триллер, драма, детектив, BDRip] [Dub (ТВ3)]+3x[MVO (Jaskier, LostFilm, Кравец)]+[Eng]+[Sub Rus, Eng] торрент без регистрации

Статистика раздачи
Размер:  14,61 GB   |    Скачан:  917 раз
Сидов:  1  [  0 KB/s  ]  

 
 
 
Автор Сообщение

МихаНЕзатор

[] 

Название: Секретные материалы
Оригинальное название: The X Files
Год выхода: 2016
Страна: США
Студия: Ten Thirteen Productions, 20th Century Fox Television, 20th Century Fox Television
Продолжительность: 6 x ~ 43:00
Жанр: фантастика, триллер, драма, детектив

Режиссер: Крис Картер, Дэрин Морган, Глен Морган, ...
В ролях: Дэвид Духовны, Джиллиан Андерсон, Митч Пиледжи, Уильям Б. Дэвис, Гардинер Миллар, Шейла Ларкен, Аннабет Гиш, Кристин Уиллз, Том Брэйдвуд, Алекс Дьякун, ...

О фильме: Спустя тринадцать лет после событий девятого сезона "Секретные материалы" возвращаются. К Фоксу Малдеру и Дане Скалли обращается некий Тэд О'Мэлли, фанат теории заговоров, который считает, что раскрыл серьезный правительственный заговор. При поддержке помощника директора ФБР Уолтера Скиннера О'Мэлли стремится заручиться помощью бывших агентов "Секретных Материалов" Малдера и Скалли, давно порвавших с ФБР…



Перевод:
- Профессиональный (дублированный) ТВ3
- Профессиональный (многоголосный, закадровый) Jaskier (ОРТ)
- Профессиональный (многоголосный, закадровый) LostFilm
- Профессиональный (многоголосный, закадровый) Кравец
- Субтитры

Кодек: x264
Качество: BDRip 720p
Видео: 1280x720 , 5000 kbps, 23,976 fps
Аудио #1: AC-3, 2 ch, 192 kbps (Rus) - Dub ТВ3
Аудио #2: AC-3, 6 ch, 384 kbps (Rus) - MVO Jaskier (ОРТ)
Аудио #3: AC-3, 6 ch, 640 kbps (Rus) - MVO LostFilm
Аудио #4: AC-3, 2 ch, 192 kbps (Rus) - MVO Кравец
Аудио #5: DTS, 6 ch, 1509 kbps (Eng)
Субтитры: Русские (Forced, Full), Английские

АНОНСЫ ПОПУЛЯРНЫХ РАЗДАЧ


Торрент обновлён, улучшен видеоряд, добавлены переводы!
За исходник спасибо - karta78

x264 [info]: frame I:642 Avg QP:14.22 size:148090
x264 [info]: frame P:12899 Avg QP:17.56 size: 50300
x264 [info]: frame B:49752 Avg QP:18.76 size: 18205
x264 [info]: consecutive B-frames: 2.4% 1.9% 6.5% 11.0% 15.2% 54.3% 4.7% 0.9% 0.7% 0.8% 1.6%

Общее
Уникальный идентификатор : 241051482618571790979722533475226680507 (0xB558D3AC889DB7B3AD36632CE962FCBB)
Полное имя : The X Files E01 S10 2016 BDRip 720р ТВ3 Jaskier LostFilm Кравец.mkv
Формат : Matroska
Версия формата : Version 2
Размер файла : 2,43 Гбайт
Продолжительность : 43 м.
Общий поток : 7920 Кбит/сек
Дата кодирования : UTC 2017-03-27 05:19:18
Программа кодирования : mkvmerge v4.0.0 ('The Stars were mine') сборка от Jun 6 2010 16:18:42
Библиотека кодирования : libebml v1.0.0 + libmatroska v1.0.0

Видео
Идентификатор : 1
Формат : AVC
Формат/Информация : Advanced Video Codec
Профиль формата : High@L4.1
Параметр CABAC формата : Да
Параметр ReFrames формата : 9 кадров
Идентификатор кодека : V_MPEG4/ISO/AVC
Продолжительность : 43 м.
Битрейт : 5000 Кбит/сек
Ширина : 1280 пикселей
Высота : 720 пикселей
Соотношение сторон : 16:9
Режим частоты кадров : Постоянный
Частота кадров : 23,976 (24000/1001) кадра/сек
Цветовое пространство : YUV
Субдискретизация насыщенности : 4:2:0
Битовая глубина : 8 бит
Тип развёртки : Прогрессивная
Бит/(Пиксели*Кадры) : 0.226
Размер потока : 1,49 Гбайт (61%)
Библиотека кодирования : x264 core 146 r2538 121396c
Настройки программы : cabac=1 / ref=9 / deblock=1:-1:-1 / analyse=0x3:0x133 / me=umh / subme=11 / psy=1 / psy_rd=1.00:0.00 / mixed_ref=1 / me_range=32 / chroma_me=1 / trellis=2 / 8x8dct=1 / cqm=0 / deadzone=21,11 / fast_pskip=0 / chroma_qp_offset=-2 / threads=12 / lookahead_threads=2 / sliced_threads=0 / nr=0 / decimate=0 / interlaced=0 / bluray_compat=0 / constrained_intra=0 / bframes=10 / b_pyramid=2 / b_adapt=2 / b_bias=0 / direct=3 / weightb=1 / open_gop=0 / weightp=2 / keyint=240 / keyint_min=23 / scenecut=40 / intra_refresh=0 / rc=2pass / mbtree=0 / bitrate=5000 / ratetol=1.0 / qcomp=0.60 / qpmin=0 / qpmax=69 / qpstep=4 / cplxblur=20.0 / qblur=0.5 / ip_ratio=1.40 / pb_ratio=1.30 / aq=3:0.80
Язык : English
Default : Нет
Forced : Нет

Аудио #1
Идентификатор : 2
Формат : AC-3
Формат/Информация : Audio Coding 3
Расширение режима : CM (complete main)
Параметр Endianness формата : Big
Идентификатор кодека : A_AC3
Продолжительность : 43 м.
Вид битрейта : Постоянный
Битрейт : 192 Кбит/сек
Каналы : 2 канала
Расположение каналов : Front: L R
Частота : 48,0 КГц
Частота кадров : 31,250 кадров/сек (1536 spf)
Метод сжатия : С потерями
Размер потока : 60,4 Мбайт (2%)
Заголовок : Dub ТВ3
Язык : Russian
Default : Нет
Forced : Нет

Аудио #2
Идентификатор : 3
Формат : AC-3
Формат/Информация : Audio Coding 3
Расширение режима : CM (complete main)
Параметр Endianness формата : Big
Идентификатор кодека : A_AC3
Продолжительность : 43 м.
Вид битрейта : Постоянный
Битрейт : 384 Кбит/сек
Каналы : 6 каналов
Расположение каналов : Front: L C R, Side: L R, LFE
Частота : 48,0 КГц
Частота кадров : 31,250 кадров/сек (1536 spf)
Метод сжатия : С потерями
Размер потока : 121 Мбайт (5%)
Заголовок : MVO Jaskier (ОРТ)
Язык : Russian
Default : Нет
Forced : Нет

Аудио #3
Идентификатор : 4
Формат : AC-3
Формат/Информация : Audio Coding 3
Расширение режима : CM (complete main)
Параметр Endianness формата : Big
Идентификатор кодека : A_AC3
Продолжительность : 43 м.
Вид битрейта : Постоянный
Битрейт : 640 Кбит/сек
Каналы : 6 каналов
Расположение каналов : Front: L C R, Side: L R, LFE
Частота : 48,0 КГц
Частота кадров : 31,250 кадров/сек (1536 spf)
Метод сжатия : С потерями
Размер потока : 201 Мбайт (8%)
Заголовок : MVO LostFilm
Язык : Russian
Default : Нет
Forced : Нет

Аудио #4
Идентификатор : 5
Формат : AC-3
Формат/Информация : Audio Coding 3
Расширение режима : CM (complete main)
Параметр Endianness формата : Big
Идентификатор кодека : A_AC3
Продолжительность : 43 м.
Вид битрейта : Постоянный
Битрейт : 192 Кбит/сек
Каналы : 2 канала
Расположение каналов : Front: L R
Частота : 48,0 КГц
Частота кадров : 31,250 кадров/сек (1536 spf)
Метод сжатия : С потерями
Размер потока : 60,4 Мбайт (2%)
Заголовок : MVO Кравец
Язык : Russian
Default : Нет
Forced : Нет

Аудио #5
Идентификатор : 6
Формат : DTS
Формат/Информация : Digital Theater Systems
Режим : 16
Параметр Endianness формата : Big
Идентификатор кодека : A_DTS
Продолжительность : 43 м.
Вид битрейта : Постоянный
Битрейт : 1509 Кбит/сек
Каналы : 6 каналов
Расположение каналов : Front: L C R, Side: L R, LFE
Частота : 48,0 КГц
Частота кадров : 93,750 кадра/сек (512 spf)
Битовая глубина : 24 бит
Метод сжатия : С потерями
Размер потока : 475 Мбайт (19%)
Язык : English
Default : Нет
Forced : Нет

Текст #1
Идентификатор : 7
Формат : UTF-8
Идентификатор кодека : S_TEXT/UTF8
Идентификатор кодека/Информация : UTF-8 Plain Text
Заголовок : Forced
Язык : Russian
Default : Нет
Forced : Нет

Текст #2
Идентификатор : 8
Формат : UTF-8
Идентификатор кодека : S_TEXT/UTF8
Идентификатор кодека/Информация : UTF-8 Plain Text
Язык : Russian
Default : Нет
Forced : Нет

Текст #3
Идентификатор : 9
Формат : UTF-8
Идентификатор кодека : S_TEXT/UTF8
Идентификатор кодека/Информация : UTF-8 Plain Text
Язык : English
Default : Нет
Forced : Нет




Скачать Секретные.материалы.X-Files.(01х01-02.из.06).(Крис.Картер.и.др.).[2016.фантастика.триллер.драма.детектив.BDRip].[Dub.(ТВ3)]+3x[MVO.(Jaskier.LostFilm.Кравец)]+[Eng]+[Sub.Rus.Eng].torrent без регистрации
Золото ЗОЛОТАЯ РАЗДАЧА! СКАЧАННОЕ НЕ ЗАСЧИТЫВАЕТСЯ! Золото
Дата: Зарегистрирован   [ Тип: внутренний ] Как тут cкачать?
MAGNET ссылка
MAGNET ссылка


Скачать .torrent

75 KB

Статус: проверено DHT
Скачан: торрент - 917 раз, раздача полностью - 7 раз
Размер: 14,61 GB
Оценка:  - (Голосов: 0)
Поблагодарили: 1
Поделиться ссылкой на эту раздачу с друзьями:
В контактеFacebookОдноклассникиTwitterLivejournalМой МирLiveinternet
 

 
Показать сообщения:    


Вы не можете начинать темы
Вы не можете отвечать на сообщения
Вы не можете редактировать свои сообщения
Вы не можете удалять свои сообщения
Вы не можете голосовать в опросах
Вы не можете прикреплять файлы к сообщениям
Вы можете скачивать файлы