Loading...
Error

Скачать Секретные материалы / X-Files (11x01-06 из 10) (Крис Картер и др.) [2018, фантастика, триллер, драма, детектив, WEBRip] [720p] [Dub (ТВ3)] торрент без регистрации

Статистика раздачи
Размер:  6,47 GB   |    Скачан:  961 раз
Сидов:  1  [  0 KB/s  ]  
 
 
 
Автор Сообщение

МихаНЕзатор

[] 

Название: Секретные материалы
Оригинальное название: The X-Files
Год выхода: 2018
Жанр: Фантастика, триллер, драма, детектив
Режиссеры: Крис Картер, Дэрин Морган, Глен Морган

В ролях: Дэвид Духовны, Джиллиан Андерсон, Митч Пиледжи, Уильям Б. Дэвис, Робби Амелл, Том Брэйдвуд, Дин Хэглунд, Брюс Харвуд, Джоэл МакХэйл, Лорен Эмброуз др.

О сериале: Специальные агенты ФБР, Фокс Малдер и Дана Скалли, снова работают вместе, чтобы расследовать странные и необъяснимые дела, связанные с паранормальными явлениями.




Производство: США / 20th Century Fox Television, Ten Thirteen Productions
Продолжительность: ~00:45:00
Перевод: Профессиональный (дубляж)
Субтитры: Отсутствуют

Файл
Формат: MKV
Качество: WEBRip 720р
Видео: MPEG-4 AVC, ~ 3500 Кбит/с, 1280x720
Аудио RUS: AAC, 44.1 kHz, 2 ch, 192 kbps

АНОНСЫ ПОПУЛЯРНЫХ РАЗДАЧ


Торрент обновлён, добавлена 6-я серия!

1. Моя борьба III / My Struggle III
2. Это / This
3. Плюс один / Plus One
4. Потерянное искусство пота на лбу / The Lost Art of Forehead Sweat
5. Вампир / Ghouli
6. Котенок / Kitten
Рип с сайта ТВ-3 (локализован видеоряд: в 1-й серии только заставка, во 2-й - заставка и экранные надписи).
General
Unique ID : 253586035708379488558745266746592981202 (0xBEC6E4DAE2974B69B8B85FE9458DF0D2)
Complete name : The.X-Files.S11E01.720p.WEBRip.Rus.mkv
Format : Matroska
Format version : Version 4 / Version 2
File size : 1.03 GiB
Duration : 39 min 53 s
Overall bit rate : 3 714 kb/s
Encoded date : UTC 2018-01-11 21:27:47
Writing application : mkvmerge v19.0.0 ('Brave Captain') 64-bit
Writing library : libebml v1.3.5 + libmatroska v1.4.8
Video
ID : 1
Format : AVC
Format/Info : Advanced Video Codec
Format profile : High@L3.1
Format settings, CABAC : Yes
Format settings, ReFrames : 1 frame
Format settings, GOP : M=1, N=12
Codec ID : V_MPEG4/ISO/AVC
Duration : 39 min 53 s
Bit rate : 3 519 kb/s
Width : 1 280 pixels
Height : 720 pixels
Display aspect ratio : 16:9
Frame rate mode : Constant
Frame rate : 25.000 FPS
Standard : Component
Color space : YUV
Chroma subsampling : 4:2:0
Bit depth : 8 bits
Scan type : Progressive
Bits/(Pixel*Frame) : 0.153
Stream size : 1 004 MiB (95%)
Language : Russian
Default : Yes
Forced : No
Color range : Limited
Audio
ID : 2
Format : AAC
Format/Info : Advanced Audio Codec
Format profile : LC
Codec ID : A_AAC
Duration : 39 min 53 s
Bit rate : 192 kb/s
Channel(s) : 2 channels
Channel positions : Front: L R
Sampling rate : 44.1 kHz
Frame rate : 43.066 FPS (1024 spf)
Compression mode : Lossy
Stream size : 54.8 MiB (5%)
Language : Russian
Default : Yes
Forced : No
Внимание! Раздача ведётся путём добавления новых серий; при каждом добавлении создаётся новый торрент. Чтобы начать докачку новой серии, пользователям необходимо сделать следующее:
(1) остановить скачивание,
(2) удалить старый торрент у себя из клиента (старые серии удалять не надо),
(3) скачать новый торрент и запустить его у себя в клиенте вместо старого, при этом указать клиенту путь в старую папку куда и должно происходить скачивание новых серий.

Ваш клиент при этом должен произвести хеширование (проверку) старой папки (если не производит сам - помогите ему сделать это), и будет докачивать только те серии которых у вас ещё нет. Старые серии при этом не удаляются, а продолжают раздаваться!

Eсли вы уже удалили старые серии, то предотвратить повторную закачку старых серий можно, отжав галочку в соответсвующих местах при запуске нового торрента. По возможности, желательно не удалять старые серии как можно дольше чтобы релизёр не столько продолжал раздавать старые серии, а смог сконцентрироваться на новых.



Скачать Секретные.материалы.X-Files.(11x01-06.из.10).(Крис.Картер.и.др.).[2018.фантастика.триллер.драма.детектив.WEBRip].[720p].[Dub.(ТВ3)].torrent без регистрации
Золото ЗОЛОТАЯ РАЗДАЧА! СКАЧАННОЕ НЕ ЗАСЧИТЫВАЕТСЯ! Золото
Дата: Зарегистрирован   [ Тип: внутренний ] Как тут cкачать?
MAGNET ссылка
MAGNET ссылка


Скачать .torrent

66 KB

Статус: проверено DHT
Скачан: торрент - 961 раз, раздача полностью - 1 раз
Размер: 6,47 GB
Оценка:  - (Голосов: 0)
Поблагодарили: 1
Поделиться ссылкой на эту раздачу с друзьями:
В контактеFacebookОдноклассникиTwitterLivejournalМой МирLiveinternet
 

 
Показать сообщения:    


Вы не можете начинать темы
Вы не можете отвечать на сообщения
Вы не можете редактировать свои сообщения
Вы не можете удалять свои сообщения
Вы не можете голосовать в опросах
Вы не можете прикреплять файлы к сообщениям
Вы можете скачивать файлы