Loading...
Error

Скачать Громила в Африке / Piedone L'Africano (Стено) [1978, комедия, боевик, BDRip] [1080p] [DVO]+[Sub] торрент без регистрации

Статистика раздачи
Размер:  9,45 GB   |    Скачан:  55 раз
Сидов:  1  [  0 KB/s  ]  
 
 
 
Автор Сообщение

Marsianka

[] 

Информация о фильме
Название: Громила в Африке
Оригинальное название: Flatfoot In Africa / Piedone L'Africano
Год выпуска: 1978
Страна: Италия, Германия
Жанр: комедия, боевик
Продолжительность: 01:53:45
Перевод: Профессиональный (двухголосый закадровый) РЕН-ТВ
Субтитры: Русские (на места без перевода)

Режиссер: Стено

В ролях: Бад Спенсер, Энцо Каннавале, Дагмар Лассандер, Вернер Почат, Джо Стюардсон, Болдуин Дакиле, Карел Тричардт, Десмонд Томпсон

Описание: 3 фильм - О похождениях комиссара неаполитанской полиции Риццо, известного под именем "Громила". Риццо получает послание от своего коллеги из Южной Африки. В письме - просьба о срочной встрече. Риццо соглашается, однако практически у него на глазах южноафриканского полисмена убивают, и он умирает на руках у Риццо, перед смертью показав "Громиле" фотографию своего маленького сына Бодо...
Полная версия фильма, поэтому на места без перевода добавлены субтитры.



Качество: BDRip 1080p
Формат: MKV
Видео кодек: H264
Аудио кодек: AC3
Видео: MPEG4 Video (H264), 1920x1040, 23.976fps, 11.5 Mbps
Аудио #1: Русский - Dolby AC3, 48000 Hz, 2ch, 192 Kbps - Двухголосый
Аудио #2: Итальянский - Dolby AC3, 48000 Hz, 2ch, 192 Kbps
Сэмпл
General
Unique ID : 183664520690110472060203271397250724834 (0x8A2C8000C6FFCE32A0412DA6729073E2)
Complete name : E:Torrent 21978 Громила в Африке.mkv
Format : Matroska
Format version : Version 4 / Version 2
File size : 9.45 GiB
Duration : 1h 53mn
Overall bit rate : 11.9 Mbps
Movie name : 1978 Громила в Африке /renta23
Encoded date : UTC 2016-01-24 19:34:36
Writing application : mkvmerge v8.3.0 ('Over the Horizon') 64bit
Writing library : libebml v1.3.1 + libmatroska v1.4.2

Video
ID : 1
Format : AVC
Format/Info : Advanced Video Codec
Format profile : High@L4.1
Format settings, CABAC : Yes
Format settings, ReFrames : 4 frames
Codec ID : V_MPEG4/ISO/AVC
Duration : 1h 53mn
Bit rate : 11.5 Mbps
Width : 1 920 pixels
Height : 1 040 pixels
Display aspect ratio : 1.85:1
Frame rate mode : Constant
Frame rate : 23.976 (24000/1001) fps
Color space : YUV
Chroma subsampling : 4:2:0
Bit depth : 8 bits
Scan type : Progressive
Bits/(Pixel*Frame) : 0.240
Stream size : 9.14 GiB (97%)
Title : 1978 Громила в Африке
Writing library : x264 core 146 r2538 121396c
Encoding settings : cabac=1 / ref=4 / deblock=1:-1:-1 / analyse=0x3:0x133 / me=umh / subme=11 / psy=1 / psy_rd=1.10:0.20 / mixed_ref=1 / me_range=32 / chroma_me=1 / trellis=2 / 8x8dct=1 / cqm=0 / deadzone=21,11 / fast_pskip=0 / chroma_qp_offset=-3 / threads=12 / lookahead_threads=2 / sliced_threads=0 / nr=0 / decimate=1 / interlaced=0 / bluray_compat=0 / constrained_intra=0 / bframes=9 / b_pyramid=2 / b_adapt=2 / b_bias=0 / direct=3 / weightb=1 / open_gop=0 / weightp=2 / keyint=250 / keyint_min=23 / scenecut=40 / intra_refresh=0 / rc_lookahead=60 / rc=2pass / mbtree=1 / bitrate=11500 / ratetol=1.0 / qcomp=0.60 / qpmin=0 / qpmax=69 / qpstep=4 / cplxblur=20.0 / qblur=0.5 / ip_ratio=1.40 / aq=2:1.00
Language : Italian
Default : Yes
Forced : No

Audio #1
ID : 2
Format : AC-3
Format/Info : Audio Coding 3
Mode extension : CM (complete main)
Format settings, Endianness : Big
Codec ID : A_AC3
Duration : 1h 53mn
Bit rate mode : Constant
Bit rate : 192 Kbps
Channel(s) : 2 channels
Channel positions : Front: L R
Sampling rate : 48.0 KHz
Frame rate : 31.250 fps (1536 spf)
Compression mode : Lossy
Stream size : 156 MiB (2%)
Title : Двухголосый, Ren TV
Language : Russian
Default : Yes
Forced : No

Audio #2
ID : 3
Format : AC-3
Format/Info : Audio Coding 3
Mode extension : CM (complete main)
Format settings, Endianness : Big
Codec ID : A_AC3
Duration : 1h 53mn
Bit rate mode : Constant
Bit rate : 192 Kbps
Channel(s) : 2 channels
Channel positions : Front: L R
Sampling rate : 48.0 KHz
Frame rate : 31.250 fps (1536 spf)
Compression mode : Lossy
Stream size : 156 MiB (2%)
Language : Italian
Default : No
Forced : No

Text
ID : 4
Format : UTF-8
Codec ID : S_TEXT/UTF8
Codec ID/Info : UTF-8 Plain Text
Duration : 1h 33mn
Bit rate : 14 bps
Count of elements : 138
Stream size : 9.63 KiB (0%)
Language : Russian
Default : No
Forced : No

Menu
00:00:00.000 : en:Chapter 01
00:09:35.992 : en:Chapter 02
00:18:46.750 : en:Chapter 03
00:42:58.242 : en:Chapter 04
00:59:33.861 : en:Chapter 05
01:11:05.511 : en:Chapter 06
01:30:02.647 : en:Chapter 07
01:44:45.696 : en:Chapter 08



Скачать Громила.в.Африке.Piedone.L'Africano.(Стено).[1978.комедия.боевик.BDRip].[1080p].[DVO]+[Sub].torrent без регистрации
Золото ЗОЛОТАЯ РАЗДАЧА! СКАЧАННОЕ НЕ ЗАСЧИТЫВАЕТСЯ! Золото
Дата: Зарегистрирован   [ Тип: внутренний ] Как тут cкачать?
MAGNET ссылка
MAGNET ссылка


Скачать .torrent

48 KB

Статус: проверено DHT
Скачан: торрент - 55 раз, раздача полностью - 8 раз
Размер: 9,45 GB
Оценка:  5 (Голосов: 1)
Поблагодарили: 1
Поделиться ссылкой на эту раздачу с друзьями:
В контактеFacebookОдноклассникиTwitterLivejournalМой МирLiveinternet
 

 
Показать сообщения:    


Вы не можете начинать темы
Вы не можете отвечать на сообщения
Вы не можете редактировать свои сообщения
Вы не можете удалять свои сообщения
Вы не можете голосовать в опросах
Вы не можете прикреплять файлы к сообщениям
Вы можете скачивать файлы