Loading...
Error

Скачать Последний охотник на ведьм / The Last Witch Hunter (Брек Эйснер) [2015, фэнтези, боевик, приключения, BDRip] [720p] [DUB] [R.G. GoldenShara] торрент без регистрации

Статистика раздачи
Размер:  2,8 GB   |    Скачан:  71 раз

Полного источника не было: 6 месяцев

 
 
 
Автор Сообщение

LORDKILL

[] 


Последний охотник на ведьм / The Last Witch Hunter


Год выпуска: 2015
Выпущено: США, Китай, Канада
Жанр: фэнтези, боевик, приключения
Продолжительность: 01:46:35
Перевод: Профессиональный (полное дублирование)
Субтитры: Русские, английские
Режиссер: Брек Эйснер

В ролях: Вин Дизель, Роуз Лесли, Элайджа Вуд, Оулавюр Дарри Оулафссон, Рина Оуэн, Юли Энгельбрехт, Майкл Кейн, Джозеф Гилган, Исаак Де Банколе, Майкл Халсли

Описание: Современный мир скрывает множество секретов, но самым удивительным из них является то, что ведьмы до сих пор живут среди нас. Это злобные сверхъестественные существа, чья цель — наслать на мир смертоносную чуму. Армии охотников на ведьм сражались с ними на протяжении многих веков.
В наши дни остался всего лишь один охотник на ведьм, Колдер, которому однажды удалось убить всемогущую королеву ведьм. Но Колдер еще не знает, что королева воскресла и жаждет отомстить своему убийце…







Качество: BDRip 720
Формат: MKV
Видео кодек: H.264
Аудио кодек: AC3
Видео: 1280x536 (2.40:1), 3314 kbps, 23.976 fps
Аудио: Русский (AC-3, 6ch, 448 kbps)

x264 [info]: frame I:1275 Avg QP:17.20 size:101410
x264 [info]: frame P:36143 Avg QP:19.07 size: 34043
x264 [info]: frame B:115919 Avg QP:22.43 size: 11128
x264 [info]: consecutive B-frames: 2.7% 3.6% 12.8% 17.6% 25.2% 32.0% 4.2% 1.1% 0.8%
x264 [total]: encoded 153337 frames, 5.08 fps, 3314.49 kb/s
General
Unique ID : 205615271609502882002871406819214604291 (0x9AB00F94A04DC128B110D7B04A2BB803)
Complete name : F:\ФИЛЬМЫ\Последний.Охотник.на.Ведьм.2015.x264.BDRip.720p.DUB.mkv
Format : Matroska
Format version : Version 4 / Version 2
File size : 2.80 GiB
Duration : 1 h 46 min
Overall bit rate : 3 765 kb/s
Movie name : Последний охотник на ведьм / The Last Witch Hunter (2015) - #LORDKILL#
Encoded date : UTC 2017-07-25 16:22:09
Writing application : mkvmerge v9.5.0 ('Quiet Fire') 64bit
Writing library : libebml v1.3.4 + libmatroska v1.4.5

Video
ID : 1
Format : AVC
Format/Info : Advanced Video Codec
Format profile : High@L4.1
Format settings, CABAC : Yes
Format settings, ReFrames : 11 frames
Codec ID : V_MPEG4/ISO/AVC
Duration : 1 h 46 min
Bit rate : 3 314 kb/s
Width : 1 280 pixels
Height : 536 pixels
Display aspect ratio : 2.40:1
Frame rate mode : Constant
Frame rate : 23.976 (24000/1001) FPS
Color space : YUV
Chroma subsampling : 4:2:0
Bit depth : 8 bits
Scan type : Progressive
Bits/(Pixel*Frame) : 0.201
Stream size : 2.47 GiB (88%)
Writing library : x264 core 146 r2538 121396c
Encoding settings : cabac=1 / ref=11 / deblock=1:-2:-2 / analyse=0x3:0x113 / me=umh / subme=11 / psy=1 / psy_rd=1.00:0.10 / mixed_ref=1 / me_range=64 / chroma_me=1 / trellis=2 / 8x8dct=1 / cqm=0 / deadzone=21,11 / fast_pskip=0 / chroma_qp_offset=-3 / threads=12 / lookahead_threads=2 / sliced_threads=0 / nr=0 / decimate=1 / interlaced=0 / bluray_compat=0 / constrained_intra=0 / bframes=8 / b_pyramid=2 / b_adapt=2 / b_bias=0 / direct=1 / weightb=1 / open_gop=0 / weightp=2 / keyint=240 / keyint_min=23 / scenecut=40 / intra_refresh=0 / rc=crf / mbtree=0 / crf=19.5 / qcomp=0.60 / qpmin=0 / qpmax=69 / qpstep=4 / ip_ratio=1.40 / pb_ratio=1.30 / aq=1:1.00
Default : Yes
Forced : No

Audio
ID : 2
Format : AC-3
Format/Info : Audio Coding 3
Mode extension : CM (complete main)
Format settings, Endianness : Big
Codec ID : A_AC3
Duration : 1 h 46 min
Bit rate mode : Constant
Bit rate : 448 kb/s
Channel(s) : 6 channels
Channel positions : Front: L C R, Side: L R, LFE
Sampling rate : 48.0 kHz
Frame rate : 31.250 FPS (1536 spf)
Bit depth : 16 bits
Compression mode : Lossy
Stream size : 342 MiB (12%)
Title : Дубляж
Language : Russian
Default : Yes
Forced : No

Text #1
ID : 3
Format : UTF-8
Codec ID : S_TEXT/UTF8
Codec ID/Info : UTF-8 Plain Text
Duration : 1 h 35 min
Bit rate : 67 b/s
Count of elements : 1036
Stream size : 47.4 KiB (0%)
Title : Enigma
Language : Russian
Default : No
Forced : No

Text #2
ID : 4
Format : UTF-8
Codec ID : S_TEXT/UTF8
Codec ID/Info : UTF-8 Plain Text
Duration : 1 h 36 min
Bit rate : 39 b/s
Count of elements : 1057
Stream size : 28.1 KiB (0%)
Title : Full
Language : English
Default : No
Forced : No

Text #3
ID : 5
Format : UTF-8
Codec ID : S_TEXT/UTF8
Codec ID/Info : UTF-8 Plain Text
Duration : 1 h 37 min
Bit rate : 45 b/s
Count of elements : 1250
Stream size : 32.4 KiB (0%)
Title : SDH
Language : English
Default : No
Forced : No

Menu
00:00:00.000 : :(01)00:00:00:000
00:08:02.689 : :(02)00:08:02:689
00:16:26.235 : :(03)00:16:26:235
00:25:18.516 : :(04)00:25:18:516
00:31:01.276 : :(05)00:31:01:276
00:36:48.246 : :(06)00:36:48:246
00:43:08.918 : :(07)00:43:08:918
00:47:09.492 : :(08)00:47:09:492
00:54:09.329 : :(09)00:54:09:329
01:00:32.961 : :(10)01:00:32:961
01:08:02.202 : :(11)01:08:02:202
01:14:44.104 : :(12)01:14:44:104
01:21:04.067 : :(13)01:21:04:067
01:29:15.515 : :(14)01:29:15:515
01:32:57.320 : :(15)01:32:57:320
01:37:28.341 : :(16)01:37:28:341
01:46:34.136 : :(17)01:46:34:136



Скачать Последний.охотник.на.ведьм.The.Last.Witch.Hunter.(Брек.Эйснер).[2015.фэнтези.боевик.приключения.BDRip].[720p].[DUB].[R.G.GoldenShara].torrent без регистрации
Золото ЗОЛОТАЯ РАЗДАЧА! СКАЧАННОЕ НЕ ЗАСЧИТЫВАЕТСЯ! Золото
Дата: Зарегистрирован   [ Тип: внутренний ] Как тут cкачать?
MAGNET ссылка
MAGNET ссылка


Скачать .torrent

15 KB

Статус: проверено
Скачан: торрент - 71 раз, раздача полностью - 30 раз
Размер: 2,8 GB
Оценка:  5 (Голосов: 1)
Поблагодарили: 3
Поделиться ссылкой на эту раздачу с друзьями:
В контактеFacebookОдноклассникиTwitterLivejournalМой МирLiveinternet
 

 

LORDKILL

[] 

ТОРРЕНТ ОБНОВЛЁН! использован 4К исходник!
 
Показать сообщения:    


Вы не можете начинать темы
Вы не можете отвечать на сообщения
Вы не можете редактировать свои сообщения
Вы не можете удалять свои сообщения
Вы не можете голосовать в опросах
Вы не можете прикреплять файлы к сообщениям
Вы можете скачивать файлы