Loading...
Error

Скачать Чёрная Маска / Hak hap (Дэниэл Ли) [1996, боевик, триллер, комедия, BDRip] [720р] [Гонконгская версия] [DVO]+[Sub]x2 торрент без регистрации

Статистика раздачи
Размер:  4,13 GB   |    Скачан:  54 раза

Полного источника не было: 19 минут

 
 
 
Автор Сообщение

Marsianka

[] 

Информация о фильме
Название: Чёрная Маска
Оригинальное название: Black Mask / Hak hap
Год выхода: 1996
Жанр: боевик, триллер, комедия
Режиссер: Дэниэл Ли
В ролях: Джет Ли, Чинг Ван Лау, Карен Мок, Франсуаза Йип, Конг Ланг, Энтони Вонг Чау-Санг, Моусес Чан, Кинг-фай Чунг, Кен Лок

О фильме:
Главный герой решается на отчаянный шаг. Путем сложнейшей хирургической операции он становится невосприимчив к боли. Кто он теперь? Мститель, не знающий пощады?
Теперь его лицо скрывает таинственная черная маска, приводящая врагов в состояние панического ужаса. Какая тайна скрывается за ней? Ответ могут дать только мертвые. Но мертвые не спешат выдавать свои секреты. А Черная Маска вновь вершит свой суд…


Страна: Гонконг
Студия: Distant Horizons, Film Workshop Ltd. Win's Entertainment Ltd.
Продолжительность: 01:39:22
Перевод: Профессиональный (двухголосый закадровый) [816 dvd team]

Файл
Кодек: H.264
Качество: BDRip 720р от SuperMin
Видео: 1280x720 (16:9), 5500 kbps, 24.000 fps
Звук: Русский (AC-3, 6ch, 448 kbps)
Субтитры: русские, английские
General
Unique ID : 237199949775439514072369924528994259038 (0xB2730C71925B74DEB5E0260CF0C8105E)
Complete name : F:ФИЛЬМЫДЖЕТ ЛИЧёрная.Маска.1996.x264.BDRip.720p.mkv
Format : Matroska
Format version : Version 4 / Version 2
File size : 4.13 GiB
Duration : 1h 39mn
Overall bit rate : 5 954 Kbps
Encoded date : UTC 2016-02-16 09:50:59
Writing application : mkvmerge v8.3.0 ('Over the Horizon') 64bit
Writing library : libebml v1.3.1 + libmatroska v1.4.2
DURATION : 01:35:52.166000000
NUMBER_OF_FRAMES : 1090
NUMBER_OF_BYTES : 32971
_STATISTICS_WRITING_APP : mkvmerge v8.3.0 ('Over the Horizon') 64bit
_STATISTICS_WRITING_DATE_UT : 2016-02-16 09:50:59
_STATISTICS_TAGS : BPS DURATION NUMBER_OF_FRAMES NUMBER_OF_BYTES

Video
ID : 1
Format : AVC
Format/Info : Advanced Video Codec
Format profile : High@L4.1
Format settings, CABAC : Yes
Format settings, ReFrames : 9 frames
Codec ID : V_MPEG4/ISO/AVC
Duration : 1h 39mn
Bit rate : 5 500 Kbps
Width : 1 280 pixels
Height : 720 pixels
Display aspect ratio : 16:9
Frame rate mode : Constant
Frame rate : 24.000 fps
Color space : YUV
Chroma subsampling : 4:2:0
Bit depth : 8 bits
Scan type : Progressive
Bits/(Pixel*Frame) : 0.249
Stream size : 3.74 GiB (90%)
Writing library : x264 core 146 r2538 121396c
Encoding settings : cabac=1 / ref=9 / deblock=1:-3:-3 / analyse=0x3:0x113 / me=umh / subme=10 / psy=1 / psy_rd=1.00:0.00 / mixed_ref=1 / me_range=24 / chroma_me=1 / trellis=2 / 8x8dct=1 / cqm=0 / deadzone=21,11 / fast_pskip=0 / chroma_qp_offset=-2 / threads=12 / lookahead_threads=2 / sliced_threads=0 / nr=0 / decimate=1 / interlaced=0 / bluray_compat=0 / constrained_intra=0 / bframes=8 / b_pyramid=2 / b_adapt=2 / b_bias=0 / direct=3 / weightb=1 / open_gop=0 / weightp=2 / keyint=240 / keyint_min=23 / scenecut=40 / intra_refresh=0 / rc_lookahead=40 / rc=2pass / mbtree=0 / bitrate=5500 / ratetol=1.0 / qcomp=0.60 / qpmin=0 / qpmax=69 / qpstep=4 / cplxblur=20.0 / qblur=0.5 / vbv_maxrate=14000 / vbv_bufsize=14000 / nal_hrd=none / filler=0 / ip_ratio=1.40 / pb_ratio=1.30 / aq=1:1.00
Default : Yes
Forced : No

Audio
ID : 2
Format : AC-3
Format/Info : Audio Coding 3
Mode extension : CM (complete main)
Format settings, Endianness : Big
Codec ID : A_AC3
Duration : 1h 39mn
Bit rate mode : Constant
Bit rate : 448 Kbps
Channel(s) : 6 channels
Channel positions : Front: L C R, Side: L R, LFE
Sampling rate : 48.0 KHz
Compression mode : Lossy
Stream size : 318 MiB (8%)
Title : DVO
Language : Russian
Default : Yes
Forced : No

Text #1
ID : 3
Format : UTF-8
Codec ID : S_TEXT/UTF8
Codec ID/Info : UTF-8 Plain Text
Language : Russian
Default : No
Forced : No

Text #2
ID : 4
Format : UTF-8
Codec ID : S_TEXT/UTF8
Codec ID/Info : UTF-8 Plain Text
Language : English
Default : No
Forced : No



Скачать Чёрная.Маска.Hak.hap.(Дэниэл.Ли).[1996.боевик.триллер.комедия.BDRip].[720р].[Гонконгская.версия].[DVO]+[Sub]x2.torrent без регистрации
Золото ЗОЛОТАЯ РАЗДАЧА! СКАЧАННОЕ НЕ ЗАСЧИТЫВАЕТСЯ! Золото
Дата: Зарегистрирован   [ Тип: внутренний ] Как тут cкачать?
MAGNET ссылка
MAGNET ссылка


Скачать .torrent

11 KB

Статус: проверено DHT
Скачан: торрент - 54 раз, раздача полностью - 2 раз
Размер: 4,13 GB
Оценка:  - (Голосов: 0)
Поблагодарили: 0
Поделиться ссылкой на эту раздачу с друзьями:
В контактеFacebookОдноклассникиTwitterLivejournalМой МирLiveinternet
 

 
Показать сообщения:    


Вы не можете начинать темы
Вы не можете отвечать на сообщения
Вы не можете редактировать свои сообщения
Вы не можете удалять свои сообщения
Вы не можете голосовать в опросах
Вы не можете прикреплять файлы к сообщениям
Вы можете скачивать файлы