Loading...
Error

Скачать Стиратель / Eraser (Чак Рассел) [1996, боевик, триллер, детектив, BDRip] [720p] [Dub]x2+[MVO]+[AVO]x3+[Оригинал]+[Sub]x2 торрент без регистрации

Статистика раздачи
Размер:  4,34 GB   |    Скачан:  69 раз
Сидов:  1  [  0 KB/s  ]  
 
 
 
Автор Сообщение

Marsianka

[] 


Информация о фильме
Название: Стиратель
Оригинальное название: Eraser
Год выхода: 1996
Жанр: боевик, триллер, детектив
Режиссер: Чак Рассел

В ролях:
Арнольд Шварценеггер — федеральный маршал США Джон Крюгер, Ванесса Уильямс — Ли Каллен, Джеймс Каан — федеральный маршал США Роберт Дегерин, Энди Романо — помощник министра обороны Дэниэл Харпер, Джеймс Кобурн — шеф Беллер, Роберт Пасторелли — Джонни Кастелеони, Джеймс Кромвелл — Уильям Донохью, Ник Чинланд — агент Кальдерон, Мелора Уолтерс — Дарлин, Патрик Килпатрик — Джеймс Хаггерти, Джо Витерелли — Тони.

О фильме:
Джон Крюгер «стирает» из прошлого и настоящего все следы людей, находящихся под охраной Программы Защиты Свидетелей. Ему надо защищать женщину, которая готова разоблачить сделку по продаже преступникам нового супероружия. Крюгер должен спасти и ее и себя, и начинается марафон не на жизнь, а на смерть, где ему предстоит прыгать с самолета вслед за парашютом, сражаться с аллигаторами, преодолевать суперсовременные системы безопасности и противостоять киллерам с новейшим оружием.



Страна: США
Студия: Warner Bros. Pictures, Kopelson Entertainment
Продолжительность: 01:54:32
Перевод: Дублированный, Профессиональный многоголосый, Авторский одноголосый, Оригинал

Файл
Кодек: x264
Качество: BDRip 720p
Видео: 1280x534 (2,40:1), 23.976 fps, 3138 kbps

Аудио #1: AC3, 384 Kbps, 48.0 KHz, 6 ch (Rus) Дублированный, Мост-Видео
Аудио #2: AC3, 192 Kbps, 48.0 KHz, 2 ch (Rus) Дублированный, Варус-Видео
Аудио #3: AC3, 448 Kbps, 48.0 KHz, 6 ch (Rus) Профессиональный многоголосый, Карусель
Аудио #4: AC3, 384 Kbps, 48.0 KHz, 6 ch (Rus) Авторский одноголосый, А.Гаврилов
Аудио #5: AC3, 192 Kbps, 48.0 KHz, 2 ch (Rus) Авторский одноголосый, Ю.Живов
Аудио #6: AC3, 192 Kbps, 48.0 KHz, 2 ch (Rus) Авторский одноголосый, С.Визгунов
Аудио #7: AC3, 384 Kbps, 48.0 KHz, 6 ch (Eng) Оригинал
Субтитры: Русские, Английские
Формат : Matroska
Версия формата : Version 2
Размер файла : 4,34 Гбайт
Продолжительность : 1 ч. 54 м.
Общий поток : 5421 Кбит/сек
Дата кодирования : UTC 2015-06-13 11:53:35
Программа кодирования : mkvmerge v5.4.0 ('Piper') built on Mar 10 2012 13:34:39
Библиотека кодирования : libebml v1.2.3 + libmatroska v1.3.0

Видео
Идентификатор : 1
Формат : AVC
Формат/Информация : Advanced Video Codec
Профиль формата : High@L4.1
Параметр CABAC формата : Да
Параметр ReFrames формата : 8 кадров
Идентификатор кодека : V_MPEG4/ISO/AVC
Продолжительность : 1 ч. 54 м.
Битрейт : 3138 Кбит/сек
Ширина : 1280 пикселей
Высота : 534 пикселя
Соотношение сторон : 2,40:1
Режим частоты кадров : Постоянный
Частота кадров : 23,976 кадра/сек
Цветовое пространство : YUV
Субдискретизация насыщенности : 4:2:0
Битовая глубина : 8 бит
Тип развёртки : Прогрессивная
Бит/(Пиксели*Кадры) : 0.191
Размер потока : 2,51 Гбайт (58%)
Заголовок : Eraser / Стиратель (1996)
Библиотека кодирования : x264 core 125 r2208 d9d2288
Настройки программы : cabac=1 / ref=8 / deblock=1:-3:-3 / analyse=0x3:0x133 / me=umh / subme=11 / psy=1 / psy_rd=1.00:0.00 / mixed_ref=1 / me_range=32 / chroma_me=1 / trellis=2 / 8x8dct=1 / cqm=0 / deadzone=21,11 / fast_pskip=0 / chroma_qp_offset=-2 / threads=12 / lookahead_threads=2 / sliced_threads=0 / nr=0 / decimate=1 / interlaced=0 / bluray_compat=0 / constrained_intra=0 / bframes=8 / b_pyramid=2 / b_adapt=2 / b_bias=0 / direct=1 / weightb=1 / open_gop=0 / weightp=2 / keyint=250 / keyint_min=23 / scenecut=40 / intra_refresh=0 / rc=crf / mbtree=0 / crf=19.0 / qcomp=0.60 / qpmin=0 / qpmax=69 / qpstep=4 / ip_ratio=1.10 / pb_ratio=1.10 / aq=1:1.00
Язык : English
Default : Да
Forced : Нет

Аудио #1
Идентификатор : 2
Формат : AC-3
Формат/Информация : Audio Coding 3
Расширение режима : CM (complete main)
Параметр Endianness формата : Big
Идентификатор кодека : A_AC3
Продолжительность : 1 ч. 54 м.
Вид битрейта : Постоянный
Битрейт : 384 Кбит/сек
Каналы : 6 каналов
Расположение каналов : Front: L C R, Side: L R, LFE
Частота : 48,0 КГц
Битовая глубина : 16 бит
Метод сжатия : С потерями
Размер потока : 315 Мбайт (7%)
Заголовок : DUB (Russian) Мост-Видео
Язык : Russian
Default : Да
Forced : Нет

Аудио #2
Идентификатор : 3
Формат : AC-3
Формат/Информация : Audio Coding 3
Расширение режима : CM (complete main)
Параметр Endianness формата : Big
Идентификатор кодека : A_AC3
Продолжительность : 1 ч. 54 м.
Вид битрейта : Постоянный
Битрейт : 192 Кбит/сек
Каналы : 2 канала
Расположение каналов : Front: L R
Частота : 48,0 КГц
Битовая глубина : 16 бит
Метод сжатия : С потерями
Размер потока : 157 Мбайт (4%)
Заголовок : DUB (Russian) Варус-Видео
Язык : Russian
Default : Нет
Forced : Нет

Аудио #3
Идентификатор : 4
Формат : AC-3
Формат/Информация : Audio Coding 3
Расширение режима : CM (complete main)
Параметр Endianness формата : Big
Идентификатор кодека : A_AC3
Продолжительность : 1 ч. 54 м.
Вид битрейта : Постоянный
Битрейт : 448 Кбит/сек
Каналы : 6 каналов
Расположение каналов : Front: L C R, Side: L R, LFE
Частота : 48,0 КГц
Битовая глубина : 16 бит
Метод сжатия : С потерями
Размер потока : 367 Мбайт (8%)
Заголовок : MVO (Russian) Карусель
Язык : Russian
Default : Нет
Forced : Нет

Аудио #4
Идентификатор : 5
Формат : AC-3
Формат/Информация : Audio Coding 3
Расширение режима : CM (complete main)
Параметр Endianness формата : Big
Идентификатор кодека : A_AC3
Продолжительность : 1 ч. 54 м.
Вид битрейта : Постоянный
Битрейт : 384 Кбит/сек
Каналы : 6 каналов
Расположение каналов : Front: L C R, Side: L R, LFE
Частота : 48,0 КГц
Битовая глубина : 16 бит
Метод сжатия : С потерями
Размер потока : 315 Мбайт (7%)
Заголовок : AVO (А.Гаврилов)
Язык : Russian
Default : Нет
Forced : Нет

Аудио #5
Идентификатор : 6
Формат : AC-3
Формат/Информация : Audio Coding 3
Расширение режима : CM (complete main)
Параметр Endianness формата : Big
Идентификатор кодека : A_AC3
Продолжительность : 1 ч. 54 м.
Вид битрейта : Постоянный
Битрейт : 192 Кбит/сек
Каналы : 2 канала
Расположение каналов : Front: L R
Частота : 48,0 КГц
Битовая глубина : 16 бит
Метод сжатия : С потерями
Размер потока : 157 Мбайт (4%)
Заголовок : AVO (Ю.Живов)
Язык : Russian
Default : Нет
Forced : Нет

Аудио #6
Идентификатор : 7
Формат : AC-3
Формат/Информация : Audio Coding 3
Расширение режима : CM (complete main)
Параметр Endianness формата : Big
Идентификатор кодека : A_AC3
Продолжительность : 1 ч. 54 м.
Вид битрейта : Постоянный
Битрейт : 192 Кбит/сек
Каналы : 2 канала
Расположение каналов : Front: L R
Частота : 48,0 КГц
Битовая глубина : 16 бит
Метод сжатия : С потерями
Размер потока : 157 Мбайт (4%)
Заголовок : AVO (С.Визгунов)
Язык : Russian
Default : Нет
Forced : Нет

Аудио #7
Идентификатор : 8
Формат : AC-3
Формат/Информация : Audio Coding 3
Расширение режима : CM (complete main)
Параметр Endianness формата : Big
Идентификатор кодека : A_AC3
Продолжительность : 1 ч. 54 м.
Вид битрейта : Постоянный
Битрейт : 384 Кбит/сек
Каналы : 6 каналов
Расположение каналов : Front: L C R, Side: L R, LFE
Частота : 48,0 КГц
Битовая глубина : 16 бит
Метод сжатия : С потерями
Размер потока : 315 Мбайт (7%)
Заголовок : Original (English)
Язык : English
Default : Нет
Forced : Нет

Текст #1
Идентификатор : 9
Формат : UTF-8
Идентификатор кодека : S_TEXT/UTF8
Идентификатор кодека/Информация : UTF-8 Plain Text
Заголовок : Rus
Язык : Russian
Default : Нет
Forced : Нет

Текст #2
Идентификатор : 10
Формат : UTF-8
Идентификатор кодека : S_TEXT/UTF8
Идентификатор кодека/Информация : UTF-8 Plain Text
Заголовок : Eng
Язык : English
Default : Нет
Forced : Нет

Меню
00:00:00.000 : en:00:00:00.000
00:02:42.412 : en:00:02:42.412
00:04:20.260 : en:00:04:20.260
00:08:33.221 : en:00:08:33.221
00:11:30.440 : en:00:11:30.440
00:12:28.831 : en:00:12:28.831
00:17:55.741 : en:00:17:55.741
00:20:39.447 : en:00:20:39.447
00:23:16.687 : en:00:23:16.687
00:24:24.129 : en:00:24:24.129
00:30:19.317 : en:00:30:19.317
00:31:32.140 : en:00:31:32.140
00:33:34.679 : en:00:33:34.679
00:34:53.174 : en:00:34:53.174
00:38:50.828 : en:00:38:50.828
00:43:26.270 : en:00:43:26.270
00:46:46.429 : en:00:46:46.429
00:48:19.146 : en:00:48:19.146
00:51:01.558 : en:00:51:01.558
00:53:34.086 : en:00:53:34.086
00:55:16.855 : en:00:55:16.855
00:57:15.265 : en:00:57:15.265
00:58:17.119 : en:00:58:17.119
01:00:56.820 : en:01:00:56.820
01:01:37.277 : en:01:01:37.277
01:03:38.148 : en:01:03:38.148
01:04:39.626 : en:01:04:39.626
01:06:06.671 : en:01:06:06.671
01:09:13.566 : en:01:09:13.566
01:11:58.648 : en:01:11:58.648
01:13:19.061 : en:01:13:19.061
01:16:30.377 : en:01:16:30.377
01:20:20.691 : en:01:20:20.691
01:23:31.924 : en:01:23:31.924
01:26:06.078 : en:01:26:06.078
01:27:52.642 : en:01:27:52.642
01:29:44.421 : en:01:29:44.421
01:33:09.793 : en:01:33:09.793
01:34:50.435 : en:01:34:50.435
01:37:18.958 : en:01:37:18.958
01:39:22.039 : en:01:39:22.039
01:42:31.645 : en:01:42:31.645
01:44:54.288 : en:01:44:54.288
01:49:29.897 : en:01:49:29.897
01:54:31.114 : en:01:54:31.114



Скачать Стиратель.Eraser.(Чак.Рассел).[1996.боевик.триллер.детектив.BDRip].[720p].[Dub]x2+[MVO]+[AVO]x3+[Оригинал]+[Sub]x2.torrent без регистрации
Золото ЗОЛОТАЯ РАЗДАЧА! СКАЧАННОЕ НЕ ЗАСЧИТЫВАЕТСЯ! Золото
Дата: Зарегистрирован   [ Тип: внутренний ] Как тут cкачать?
MAGNET ссылка
MAGNET ссылка


Скачать .torrent

12 KB

Статус: проверено DHT
Скачан: торрент - 69 раз, раздача полностью - 20 раз
Размер: 4,34 GB
Оценка:  5 (Голосов: 2)
Поблагодарили: 4
Поделиться ссылкой на эту раздачу с друзьями:
В контактеFacebookОдноклассникиTwitterLivejournalМой МирLiveinternet
 

 
Показать сообщения:    


Вы не можете начинать темы
Вы не можете отвечать на сообщения
Вы не можете редактировать свои сообщения
Вы не можете удалять свои сообщения
Вы не можете голосовать в опросах
Вы не можете прикреплять файлы к сообщениям
Вы можете скачивать файлы