Loading...
Error

Скачать Блэйд: Трилогия / Blade: Trilogy (Стивен Норрингтон, Гильермо Дель Торо, Дэвид С. Гойер) [1998, Боевик, Фантастика, Ужасы, BDRip] [720p] [DUB] [R.G. GoldenShara] торрент без регистрации

Статистика раздачи
Размер:  10,09 GB   |    Скачан:  17 раз
Сидов:  1  [  0 KB/s  ]  

 
 
 
Автор Сообщение

LORDKILL

[] 


Блэйд: Трилогия / Blade: Trilogy


Год выпуска: 1998
Выпущено: США, Германия
Жанр: Боевик, Фантастика, Ужасы
Продолжительность: 02:00:13, 01:56:50, 01:52:52
Перевод: Профессиональный (полное дублирование)
Субтитры: Русские, английские

Режиссер: Стивен Норрингтон, Гильермо Дель Торо, Дэвид С. Гойер

В ролях: Блэйд - Уэсли Снайпс, Крис Кристофферсон, Стивен Дорфф, Н’Буш Райт, Донал Лог, Удо Кир, Арли Жовер, Трейси Лордс, Кевин Патрик Уоллс, Тим Гини
Блэйд-2 - Уэсли Снайпс, Крис Кристофферсон, Рон Перлман, Леонор Варела, Норман Ридус, Томас Кречманн, Люк Госс, Мэтт Шульце, Дэнни Джон-Джулс, Донни Ен
Блэйд-3 (Троица) - Уэсли Снайпс, Крис Кристофферсон, Доминик Пёрселл, Джессика Бил, Райан Рейнольдс, Паркер Поузи, Марк Берри, Джон Майкл Хиггинс, Каллум Кит Ренни, Пол Левески

Описание: Блэйд - Получеловек-полувампир Блэйд намерен уничтожить виновника своей судьбы — Дьякона Фроста. Когда-то в кровь Блэйда попало совсем немного вампирского яда, но с течением времени он стал ощущать неизбежность своего превращения.
Желая избавить людей от тайной и могущественной армии вампиров, заполонившей общество, он отправляется на решающий бой…

Блэйд-2 - Мир вампиров в ужасе от появления новой расы супер-кровососов! Именно благодаря этому легендарный Блэйд и его учитель Уистлер вынуждены объединиться со своими кровными врагами Кровавой Стаей, — элитным отрядом вампиров-воинов.

Блэйд-3 (Троица) - Фатальные события могут привести к захвату власти в мире вампирами. Блэйд — единственный, кто может предотвратить страшные перемены и воспрепятствовать превращению мира в «Планету вампиров».
Стремясь помешать Блэйду в реализации его плана, верхушка вампиров во главе с Даникой Талос натравливают на него людей. Полиция начинает охоту на того, кого теперь все считают жутким монстром…







Качество: BDRip 720p
Формат: MKV
Видео кодек: H.264
Аудио кодек: AC3
Видео: Блэйд - 1280х720 (16:9), 4248 Kbps, 23.976 fps
Блэйд-2 - 1280х720 (16:9), 3879 Kbps, 23.976 fps
Блэйд-3 (Троица) - 1280х544 (2.35:1), 2972 Kbps, 23.976 fps
Аудио: Блэйд - Русский (AC-3, 6ch, 384kbps)
Блэйд-2 - Русский (AC-3, 6ch, 448kbps)
Блэйд-3 (Троица) - Русский (AC-3, 6ch, 384kbps)

x264 [info]: frame I:1373 Avg QP:17.70 size: 99597
x264 [info]: frame P:45187 Avg QP:19.06 size: 42858
x264 [info]: frame B:126389 Avg QP:22.02 size: 13904
x264 [info]: consecutive B-frames: 6.0% 5.3% 10.0% 17.8% 18.3% 34.6% 5.0% 1.2% 1.2% 0.7%
x264 [total]: encoded 172949 frames, 4.46 fps, 4248.39 kb/s
General
Unique ID : 249441974824505123667266951663633702336 (0xBBA8C6E0F67B0E5F80AAAC1D9C821DC0)
Complete name : F:\ФИЛЬМЫ\Блэйд.Трилогия.1998-2004.x264.BDRip.720p.DUB\Блэйд.1998.x264.BDRip.720p.DUB.mkv
Format : Matroska
Format version : Version 4 / Version 2
File size : 3.90 GiB
Duration : 2 h 0 min
Overall bit rate : 4 642 kb/s
Movie name : Блэйд / Blade (1998) - #LORDKILL#
Encoded date : UTC 2017-07-16 08:35:51
Writing application : mkvmerge v9.9.0 ('Pick Up') 64bit
Writing library : libebml v1.3.4 + libmatroska v1.4.5

Video
ID : 1
Format : AVC
Format/Info : Advanced Video Codec
Format profile : High@L4.1
Format settings, CABAC : Yes
Format settings, ReFrames : 9 frames
Codec ID : V_MPEG4/ISO/AVC
Duration : 2 h 0 min
Bit rate : 4 248 kb/s
Width : 1 280 pixels
Height : 720 pixels
Display aspect ratio : 16:9
Frame rate mode : Constant
Frame rate : 23.976 (24000/1001) FPS
Color space : YUV
Chroma subsampling : 4:2:0
Bit depth : 8 bits
Scan type : Progressive
Bits/(Pixel*Frame) : 0.192
Stream size : 3.57 GiB (92%)
Writing library : x264 core 146 r2538 121396c
Encoding settings : cabac=1 / ref=9 / deblock=1:-2:-2 / analyse=0x3:0x113 / me=umh / subme=11 / psy=1 / psy_rd=1.00:0.10 / mixed_ref=1 / me_range=64 / chroma_me=1 / trellis=2 / 8x8dct=1 / cqm=0 / deadzone=21,11 / fast_pskip=0 / chroma_qp_offset=-3 / threads=12 / lookahead_threads=2 / sliced_threads=0 / nr=0 / decimate=1 / interlaced=0 / bluray_compat=0 / constrained_intra=0 / bframes=9 / b_pyramid=2 / b_adapt=2 / b_bias=0 / direct=1 / weightb=1 / open_gop=0 / weightp=2 / keyint=240 / keyint_min=23 / scenecut=40 / intra_refresh=0 / rc=crf / mbtree=0 / crf=19.5 / qcomp=0.60 / qpmin=0 / qpmax=69 / qpstep=4 / ip_ratio=1.40 / pb_ratio=1.30 / aq=1:1.00
Language : English
Default : Yes
Forced : No

Audio
ID : 2
Format : AC-3
Format/Info : Audio Coding 3
Mode extension : CM (complete main)
Format settings, Endianness : Big
Codec ID : A_AC3
Duration : 2 h 0 min
Bit rate mode : Constant
Bit rate : 384 kb/s
Channel(s) : 6 channels
Channel positions : Front: L C R, Side: L R, LFE
Sampling rate : 48.0 kHz
Frame rate : 31.250 FPS (1536 spf)
Bit depth : 16 bits
Compression mode : Lossy
Stream size : 330 MiB (8%)
Title : Дубляж
Language : Russian
Default : Yes
Forced : No

Text #1
ID : 3
Format : PGS
Muxing mode : zlib
Codec ID : S_HDMV/PGS
Codec ID/Info : Picture based subtitle format used on BDs/HD-DVDs
Duration : 1 h 53 min
Bit rate : 4 065 b/s
Count of elements : 2026
Stream size : 3.29 MiB (0%)
Language : Russian
Default : Yes
Forced : No

Text #2
ID : 4
Format : PGS
Muxing mode : zlib
Codec ID : S_HDMV/PGS
Codec ID/Info : Picture based subtitle format used on BDs/HD-DVDs
Duration : 1 h 52 min
Bit rate : 3 920 b/s
Count of elements : 1712
Stream size : 3.17 MiB (0%)
Language : English
Default : No
Forced : No
x264 [info]: frame I:1240 Avg QP:17.76 size: 89694
x264 [info]: frame P:41255 Avg QP:19.45 size: 39325
x264 [info]: frame B:125574 Avg QP:22.47 size: 13260
x264 [info]: consecutive B-frames: 3.6% 5.2% 11.1% 19.3% 19.9% 34.2% 3.5% 0.7% 0.7% 0.9% 0.7%
x264 [total]: encoded 168069 frames, 4.67 fps, 3878.72 kb/s
General
Unique ID : 234971348002564755269034176579760605310 (0xB0C5D5E494B4266BAA187EBF0A38C87E)
Complete name : F:\ФИЛЬМЫ\Блэйд.Трилогия.1998-2004.x264.BDRip.720p.DUB\Блейд-2.2002.x264.BDRip.720p.DUB.mkv
Format : Matroska
Format version : Version 4 / Version 2
File size : 3.54 GiB
Duration : 1 h 56 min
Overall bit rate : 4 339 kb/s
Movie name : Блейд II / Blade II (2002) - #LORDKILL#
Encoded date : UTC 2017-07-14 13:37:58
Writing application : mkvmerge v9.9.0 ('Pick Up') 64bit
Writing library : libebml v1.3.4 + libmatroska v1.4.5

Video
ID : 1
Format : AVC
Format/Info : Advanced Video Codec
Format profile : High@L4.1
Format settings, CABAC : Yes
Format settings, ReFrames : 9 frames
Codec ID : V_MPEG4/ISO/AVC
Duration : 1 h 56 min
Bit rate : 3 879 kb/s
Width : 1 280 pixels
Height : 720 pixels
Display aspect ratio : 16:9
Frame rate mode : Constant
Frame rate : 23.976 (24000/1001) FPS
Color space : YUV
Chroma subsampling : 4:2:0
Bit depth : 8 bits
Scan type : Progressive
Bits/(Pixel*Frame) : 0.176
Stream size : 3.17 GiB (89%)
Writing library : x264 core 146 r2538 121396c
Encoding settings : cabac=1 / ref=9 / deblock=1:-2:-2 / analyse=0x3:0x113 / me=umh / subme=11 / psy=1 / psy_rd=1.00:0.10 / mixed_ref=1 / me_range=64 / chroma_me=1 / trellis=2 / 8x8dct=1 / cqm=0 / deadzone=21,11 / fast_pskip=0 / chroma_qp_offset=-3 / threads=12 / lookahead_threads=3 / sliced_threads=0 / nr=0 / decimate=1 / interlaced=0 / bluray_compat=0 / constrained_intra=0 / bframes=10 / b_pyramid=2 / b_adapt=2 / b_bias=0 / direct=1 / weightb=1 / open_gop=0 / weightp=2 / keyint=240 / keyint_min=23 / scenecut=40 / intra_refresh=0 / rc=crf / mbtree=0 / crf=20.0 / qcomp=0.60 / qpmin=0 / qpmax=69 / qpstep=4 / ip_ratio=1.40 / pb_ratio=1.30 / aq=1:1.00
Language : English
Default : Yes
Forced : No

Audio
ID : 2
Format : AC-3
Format/Info : Audio Coding 3
Mode extension : CM (complete main)
Format settings, Endianness : Big
Codec ID : A_AC3
Duration : 1 h 56 min
Bit rate mode : Constant
Bit rate : 448 kb/s
Channel(s) : 6 channels
Channel positions : Front: L C R, Side: L R, LFE
Sampling rate : 48.0 kHz
Frame rate : 31.250 FPS (1536 spf)
Bit depth : 16 bits
Compression mode : Lossy
Delay relative to video : 448 ms
Stream size : 374 MiB (10%)
Title : Дубляж
Language : Russian
Default : Yes
Forced : No

Text #1
ID : 3
Format : PGS
Muxing mode : zlib
Codec ID : S_HDMV/PGS
Codec ID/Info : Picture based subtitle format used on BDs/HD-DVDs
Duration : 1 h 54 min
Bit rate : 4 341 b/s
Count of elements : 1896
Stream size : 3.55 MiB (0%)
Title : v1
Language : Russian
Default : Yes
Forced : No

Text #2
ID : 4
Format : PGS
Muxing mode : zlib
Codec ID : S_HDMV/PGS
Codec ID/Info : Picture based subtitle format used on BDs/HD-DVDs
Duration : 1 h 48 min
Bit rate : 3 338 b/s
Count of elements : 1596
Stream size : 2.60 MiB (0%)
Title : v2
Language : Russian
Default : No
Forced : No

Text #3
ID : 5
Format : PGS
Muxing mode : zlib
Codec ID : S_HDMV/PGS
Codec ID/Info : Picture based subtitle format used on BDs/HD-DVDs
Duration : 1 h 48 min
Bit rate : 3 253 b/s
Count of elements : 1404
Stream size : 2.52 MiB (0%)
Language : English
Default : No
Forced : No
x264 [info]: frame I:1563 Avg QP:17.69 size: 80380
x264 [info]: frame P:47141 Avg QP:18.77 size: 27956
x264 [info]: frame B:113678 Avg QP:22.21 size: 9436
x264 [info]: consecutive B-frames: 7.7% 6.5% 13.6% 22.7% 19.8% 27.3% 1.7% 0.4% 0.2%
x264 [total]: encoded 162382 frames, 6.05 fps, 2972.17 kb/s
General
Unique ID : 228754607108843643009682958591938430965 (0xAC1888E6FF6C76B685FB17DC662E87F5)
Complete name : F:\ФИЛЬМЫ\Блэйд.Трилогия.1998-2004.x264.BDRip.720p.DUB\Блэйд-3.Троица.2004.x264.BDRip.720p.DUB.mkv
Format : Matroska
Format version : Version 4 / Version 2
File size : 2.65 GiB
Duration : 1 h 52 min
Overall bit rate : 3 366 kb/s
Movie name : Блэйд 3. Троица / Blade Trinity (2004) - #LORDKILL#
Encoded date : UTC 2017-07-17 02:45:20
Writing application : mkvmerge v9.9.0 ('Pick Up') 64bit
Writing library : libebml v1.3.4 + libmatroska v1.4.5

Video
ID : 1
Format : AVC
Format/Info : Advanced Video Codec
Format profile : High@L4.1
Format settings, CABAC : Yes
Format settings, ReFrames : 11 frames
Codec ID : V_MPEG4/ISO/AVC
Duration : 1 h 52 min
Bit rate : 2 972 kb/s
Width : 1 280 pixels
Height : 544 pixels
Display aspect ratio : 2.35:1
Frame rate mode : Constant
Frame rate : 23.976 (24000/1001) FPS
Color space : YUV
Chroma subsampling : 4:2:0
Bit depth : 8 bits
Scan type : Progressive
Bits/(Pixel*Frame) : 0.178
Stream size : 2.34 GiB (88%)
Writing library : x264 core 146 r2538 121396c
Encoding settings : cabac=1 / ref=11 / deblock=1:-2:-2 / analyse=0x3:0x113 / me=umh / subme=11 / psy=1 / psy_rd=1.00:0.10 / mixed_ref=1 / me_range=64 / chroma_me=1 / trellis=2 / 8x8dct=1 / cqm=0 / deadzone=21,11 / fast_pskip=0 / chroma_qp_offset=-3 / threads=12 / lookahead_threads=2 / sliced_threads=0 / nr=0 / decimate=1 / interlaced=0 / bluray_compat=0 / constrained_intra=0 / bframes=8 / b_pyramid=2 / b_adapt=2 / b_bias=0 / direct=1 / weightb=1 / open_gop=0 / weightp=2 / keyint=240 / keyint_min=23 / scenecut=40 / intra_refresh=0 / rc=crf / mbtree=0 / crf=19.5 / qcomp=0.60 / qpmin=0 / qpmax=69 / qpstep=4 / ip_ratio=1.40 / pb_ratio=1.30 / aq=1:1.00
Language : English
Default : Yes
Forced : No

Audio
ID : 2
Format : AC-3
Format/Info : Audio Coding 3
Mode extension : CM (complete main)
Format settings, Endianness : Big
Codec ID : A_AC3
Duration : 1 h 52 min
Bit rate mode : Constant
Bit rate : 384 kb/s
Channel(s) : 6 channels
Channel positions : Front: L C R, Side: L R, LFE
Sampling rate : 48.0 kHz
Frame rate : 31.250 FPS (1536 spf)
Bit depth : 16 bits
Compression mode : Lossy
Stream size : 310 MiB (11%)
Title : Дубляж
Language : Russian
Default : Yes
Forced : No

Text #1
ID : 3
Format : PGS
Muxing mode : zlib
Codec ID : S_HDMV/PGS
Codec ID/Info : Picture based subtitle format used on BDs/HD-DVDs
Duration : 1 h 52 min
Bit rate : 4 114 b/s
Count of elements : 1692
Stream size : 3.30 MiB (0%)
Language : Russian
Default : Yes
Forced : No

Text #2
ID : 4
Format : PGS
Muxing mode : zlib
Codec ID : S_HDMV/PGS
Codec ID/Info : Picture based subtitle format used on BDs/HD-DVDs
Duration : 1 h 49 min
Bit rate : 4 501 b/s
Count of elements : 2010
Stream size : 3.53 MiB (0%)
Language : English
Default : No
Forced : No




Скачать Блэйд.Трилогия.Blade.Trilogy.(Стивен.Норрингтон.Гильермо.Дель.Торо.Дэвид.С.Гойер).[1998.Боевик.Фантастика.Ужасы.BDRip].[720p].[DUB].[R.G.GoldenShara].torrent без регистрации
Золото ЗОЛОТАЯ РАЗДАЧА! СКАЧАННОЕ НЕ ЗАСЧИТЫВАЕТСЯ! Золото
Дата: Зарегистрирован   [ Тип: внутренний ] Как тут cкачать?
MAGNET ссылка
MAGNET ссылка


Скачать .torrent

26 KB

Статус: проверено
Скачан: торрент - 17 раз, раздача полностью - 4 раз
Размер: 10,09 GB
Оценка:  5 (Голосов: 2)
Поблагодарили: 3
Поделиться ссылкой на эту раздачу с друзьями:
В контактеFacebookОдноклассникиTwitterLivejournalМой МирLiveinternet
 

 

fantasyboy1990

[] 

Раздайте пожалуйста!!
 

LORDKILL

[] 

ТОРРЕНТ ОБНОВЛЁН! Полностью все рипы переделаны, использованы другие исходники. 1-ю и 2-ю часть делал по три раза чтобы добиться меньшего размера и хорошего качества!
 

asd-anane

[] 

Огромное спасибо. Мне тут месяц или два назад провайдер блокировал этот сайт, заходил через прокси, потом как-то всё прошло, НО перестали работать кнопочки Оценка и Спасибка ((((( да.... и Смайлы тож не откликаются((( РЫДАЮ(((
 

LORDKILL

[] 

asd-anane ПРОБУЙ разными браузерами, у мя тоже через некоторые не показывают, через оперу нормально вроде!
 

Голден Шура

[] 

asd-anane писал(а):

Огромное спасибо. Мне тут месяц или два назад провайдер блокировал этот сайт, заходил через прокси, потом как-то всё прошло, НО перестали работать кнопочки Оценка и Спасибка ((((( да.... и Смайлы тож не откликаются((( РЫДАЮ(((
Тоже самое. Захожу через Opera, не скриншоты не отображаются, не "спасибо" нажать, вообще ничего. В чём проблема не понятно(
 

dorga6

[] 

Спасибо огромное! Прекрасный релиз!
 
Показать сообщения:    


Вы не можете начинать темы
Вы не можете отвечать на сообщения
Вы не можете редактировать свои сообщения
Вы не можете удалять свои сообщения
Вы не можете голосовать в опросах
Вы не можете прикреплять файлы к сообщениям
Вы можете скачивать файлы