Loading...
Error

Скачать В активном поиске / How to Be Single (Кристиан Диттер) [2016, комедия, мелодрама, BDRemux] [1080p] [Dub (лицензия)]+[Eng]+[Sub Eng] торрент без регистрации

Статистика раздачи
Размер:  24,34 GB   |    Скачан:  86 раз
Сидов:  1  [  0 KB/s  ]  
 
 
 
Автор Сообщение

МихаНЕзатор

[] 

Информация о фильме
Название: В активном поиске
Оригинальное название: How to Be Single
Год выхода: 2016
Жанр: Комедия, мелодрама
Режиссер: Кристиан Диттер

В ролях: Дакота Джонсон, Ребел Уилсон, Элисон Бри, Лесли Манн, Николас Браун, Джейсон Манцукас, Дэймон Уайанс мл., Колин Жост, Джейк Лэси, Андерс Холм, Сара Рамос, Ник Бейтман, Мики Гуч мл., Ванесса Рубио, Зани Джонс Мбаис, Брент Морин, Кэй Кэннон, Джудит Лайтфут Кларк, Патрик Болл, Анна Эйлинсфелд

О фильме: Устав от жизни со своим бойфрендом, Элис уходит от него, переезжает к старшей сестре Мэг, находит новую работу и обзаводится новой подругой Робин. Последняя оказывается страстной поклонницей ночных «отжигов» и пытается втянуть Элис в свою безумную жизнь, хотя та предпочитает чинные и продолжительные отношения пьяным знакомствам на вечеринках.

Релиз от: Автор релиза:

Страна: США
Студия: Flower Films (II), New Line Cinema, Rickard Pictures
Продолжительность: 01:49:51
Перевод: Дублированный | Лицензия Blu-Ray CEE

Файл
Кодек: MPEG-4
Качество: BDRemux 1080p
Видео: 1920x1080, 25.9 Mbit/s, 23.976 fps
Звук:
Аудио #01: 48 kHz, AC3, 5.1, 640 Kbps | Дублированный, Лицензия Blu-Ray CEE |
Аудио #02: 48 kHz, DTS-HD MA, 5.1, 3681 kbps | Оригинал |
Субтитры: Английские

АНОНСЫ ПОПУЛЯРНЫХ РАЗДАЧ


Торрент обновлён, улучшен видеоряд и звук!
General
Unique ID : 193333012209135958623464806820094595442 (0x9172957053930F7A85507E18DF06D172)
Complete name : F:VideohowHow.to.Be.Single.2016.BDREMUX.1080p.ExKinoRay.mkv
Format : Matroska
Format version : Version 4 / Version 2
File size : 24.3 GiB
Duration : 1h 49mn
Overall bit rate mode : Variable
Overall bit rate : 31.7 Mbps
Movie name : How.to.Be.Single.2016.BDREMUX.1080p.ExKinoRay
Encoded date : UTC 2016-06-08 00:59:05
Writing application : mkvmerge v8.3.0 ('Over the Horizon') 64bit
Writing library : libebml v1.3.1 + libmatroska v1.4.2

Video
ID : 1
Format : AVC
Format/Info : Advanced Video Codec
Format profile : High@L4.1
Format settings, CABAC : Yes
Format settings, ReFrames : 4 frames
Codec ID : V_MPEG4/ISO/AVC
Duration : 1h 49mn
Bit rate mode : Variable
Bit rate : 25.9 Mbps
Maximum bit rate : 30.0 Mbps
Width : 1 920 pixels
Height : 1 080 pixels
Display aspect ratio : 16:9
Frame rate mode : Constant
Frame rate : 23.976 (24000/1001) fps
Color space : YUV
Chroma subsampling : 4:2:0
Bit depth : 8 bits
Scan type : Progressive
Bits/(Pixel*Frame) : 0.521
Stream size : 19.9 GiB (82%)
Title : How.to.Be.Single.2016.BDREMUX.1080p.ExKinoRay.***селезень***
Language : English
Default : No
Forced : No

Audio #1
ID : 2
Format : AC-3
Format/Info : Audio Coding 3
Mode extension : CM (complete main)
Format settings, Endianness : Big
Codec ID : A_AC3
Duration : 1h 49mn
Bit rate mode : Constant
Bit rate : 640 Kbps
Channel(s) : 6 channels
Channel positions : Front: L C R, Side: L R, LFE
Sampling rate : 48.0 KHz
Frame rate : 31.250 fps (1536 spf)
Compression mode : Lossy
Stream size : 503 MiB (2%)
Title : DUB [License Blu-Ray CEE]
Language : Russian
Default : Yes
Forced : No

Audio #2
ID : 3
Format : DTS
Format/Info : Digital Theater Systems
Format profile : MA / Core
Mode : 16
Format settings, Endianness : Big
Codec ID : A_DTS
Duration : 1h 49mn
Bit rate mode : Variable / Constant
Bit rate : 3 681 Kbps / 1 509 Kbps
Channel(s) : 6 channels
Channel positions : Front: L C R, Side: L R, LFE
Sampling rate : 48.0 KHz
Frame rate : 93.750 fps (512 spf)
Bit depth : 24 bits
Compression mode : Lossless / Lossy
Stream size : 2.82 GiB (12%)
Title : Original
Language : English
Default : No
Forced : No

Audio #3
ID : 4
Format : DTS
Format/Info : Digital Theater Systems
Mode : 16
Format settings, Endianness : Big
Codec ID : A_DTS
Duration : 1h 49mn
Bit rate mode : Constant
Bit rate : 1 509 Kbps
Channel(s) : 6 channels
Channel positions : Front: L C R, Side: L R, LFE
Sampling rate : 48.0 KHz
Frame rate : 93.750 fps (512 spf)
Bit depth : 24 bits
Compression mode : Lossy
Stream size : 1.16 GiB (5%)
Title : Original
Language : English
Default : No
Forced : No

Text #1
ID : 5
Format : UTF-8
Codec ID : S_TEXT/UTF8
Codec ID/Info : UTF-8 Plain Text
Duration : 1h 43mn
Bit rate : 3 bps
Count of elements : 78
Stream size : 2.75 KiB (0%)
Title : Forced [iTunes]
Language : Russian
Default : Yes
Forced : No

Text #2
ID : 6
Format : UTF-8
Codec ID : S_TEXT/UTF8
Codec ID/Info : UTF-8 Plain Text
Duration : 1h 43mn
Bit rate : 125 bps
Count of elements : 2033
Stream size : 95.6 KiB (0%)
Title : Full [iTunes]
Language : Russian
Default : No
Forced : No

Text #3
ID : 7
Format : UTF-8
Codec ID : S_TEXT/UTF8
Codec ID/Info : UTF-8 Plain Text
Duration : 1h 43mn
Bit rate : 89 bps
Count of elements : 2285
Stream size : 67.7 KiB (0%)
Title : Full [iTunes]
Language : English
Default : No
Forced : No

Text #4
ID : 8
Format : UTF-8
Codec ID : S_TEXT/UTF8
Codec ID/Info : UTF-8 Plain Text
Duration : 55mn 24s
Bit rate : 95 bps
Count of elements : 1231
Stream size : 38.7 KiB (0%)
Title : SDH
Language : English
Default : No
Forced : No

Menu
00:00:00.000 : en:00:00:00.000
00:10:18.493 : en:00:10:18.493
00:20:34.775 : en:00:20:34.775
00:31:17.751 : en:00:31:17.751
00:41:28.194 : en:00:41:28.194
00:52:06.832 : en:00:52:06.832
01:03:33.560 : en:01:03:33.560
01:16:21.160 : en:01:16:21.160
01:24:43.036 : en:01:24:43.036
01:32:11.818 : en:01:32:11.818
01:43:26.826 : en:01:43:26.826



Скачать В.активном.поиске.How.to.Be.Single.(Кристиан.Диттер).[2016.комедия.мелодрама.BDRemux].[1080p].[Dub.(лицензия)]+[Eng]+[Sub.Eng].torrent без регистрации
Золото ЗОЛОТАЯ РАЗДАЧА! СКАЧАННОЕ НЕ ЗАСЧИТЫВАЕТСЯ! Золото
Дата: Зарегистрирован   [ Тип: внутренний ] Как тут cкачать?
MAGNET ссылка
MAGNET ссылка


Скачать .torrent

122 KB

Статус: проверено DHT
Скачан: торрент - 86 раз, раздача полностью - 31 раз
Размер: 24,34 GB
Оценка:  5 (Голосов: 2)
Поблагодарили: 6
Поделиться ссылкой на эту раздачу с друзьями:
В контактеFacebookОдноклассникиTwitterLivejournalМой МирLiveinternet
 

 
Показать сообщения:    


Вы не можете начинать темы
Вы не можете отвечать на сообщения
Вы не можете редактировать свои сообщения
Вы не можете удалять свои сообщения
Вы не можете голосовать в опросах
Вы не можете прикреплять файлы к сообщениям
Вы можете скачивать файлы