Loading...
Error

Скачать Познать неизведанное / Approaching the Unknown (Марк Элайджа Розенберг) [2016, фантастика, триллер, драма, WEB-DL] [1080p] [MVO]+[Eng]+[Sub Eng] торрент без регистрации

Статистика раздачи
Размер:  3,48 GB   |    Скачан:  208 раз
Сидов:  1  [  0 KB/s  ]  
 
 
 
Автор Сообщение

МихаНЕзатор

[] 

Информация о фильме
Название: Познать неизведанное
Оригинальное название: Approaching the Unknown
Год выхода: 2016
Жанр: фантастика, триллер, драма
Режиссер: Марк Элайджа Розенберг

В ролях: Марк Стронг, Санаа Лэтэн, Чарльз Бэйкер, Луиза Янофски, Лорен Рейто, Лора Ли Экобелли, Томас Ухлиарик, Джо Джеймс, Скотт Дэнни

О фильме: Космическая фантастика об одиночной миссии астронавта-первопроходца на Марс. Многодневный полет плачевно сказывается на состоянии корабля и самого героя, чья мечта, жизнь и рассудок находятся под угрозой. Пора сделать выбор – вернуться ни с чем или продолжить путь к неизведанному?

Релиз от: Автор релиза:

Страна: США
Студия: 3311 Productions, Loveless, Rooftop Films, TideRock Media
Продолжительность: 01:30:12
Перевод: Любительский многоголосый (закадровый)

Файл
Кодек: MPEG-4
Качество: WEB-DL 1080p
Видео: 1916x1076, 4942 Kbit/s, 23.976 fps
Звук:
Аудио #01: 48 kHz, AC3, 2.0, 192 Kbps | Любительский многоголосый (закадровый) |AC3
Аудио #02: 48 kHz, AC3, 5.1, 384 kbps | Оригинал |AC3
Субтитры: Английские

АНОНСЫ ПОПУЛЯРНЫХ РАЗДАЧ
General
Unique ID : 201529751294015885918015483977824638095 (0x979D37E08E6361D99FC0252804AA948F)
Complete name : F:VideoApproaching.the.Unknown.2016..WEB-DL.1080p.ExKinoRay.mkv
Format : Matroska
Format version : Version 4 / Version 2
File size : 3.48 GiB
Duration : 1h 30mn
Overall bit rate : 5 520 Kbps
Movie name : Approaching.the.Unknown.2016..WEB-DL.1080p.ExKinoRay
Encoded date : UTC 2016-06-05 23:11:34
Writing application : mkvmerge v8.3.0 ('Over the Horizon') 64bit
Writing library : libebml v1.3.1 + libmatroska v1.4.2

Video
ID : 1
Format : AVC
Format/Info : Advanced Video Codec
Format profile : High@L4
Format settings, CABAC : Yes
Format settings, ReFrames : 4 frames
Codec ID : V_MPEG4/ISO/AVC
Duration : 1h 30mn
Bit rate : 4 942 Kbps
Width : 1 916 pixels
Height : 1 076 pixels
Display aspect ratio : 16:9
Frame rate mode : Constant
Frame rate : 23.976 (23976/1000) fps
Color space : YUV
Chroma subsampling : 4:2:0
Bit depth : 8 bits
Scan type : Progressive
Bits/(Pixel*Frame) : 0.100
Stream size : 3.12 GiB (90%)
Language : English
Default : Yes
Forced : No
Color range : Limited
Color primaries : BT.709
Transfer characteristics : BT.709
Matrix coefficients : BT.709

Audio #1
ID : 2
Format : AC-3
Format/Info : Audio Coding 3
Mode extension : CM (complete main)
Format settings, Endianness : Big
Codec ID : A_AC3
Duration : 1h 30mn
Bit rate mode : Constant
Bit rate : 192 Kbps
Channel(s) : 2 channels
Channel positions : Front: L R
Sampling rate : 48.0 KHz
Frame rate : 31.250 fps (1536 spf)
Compression mode : Lossy
Delay relative to video : 24ms
Stream size : 124 MiB (3%)
Language : Russian
Default : Yes
Forced : No

Audio #2
ID : 3
Format : AC-3
Format/Info : Audio Coding 3
Mode extension : CM (complete main)
Format settings, Endianness : Big
Codec ID : A_AC3
Duration : 1h 30mn
Bit rate mode : Constant
Bit rate : 384 Kbps
Channel(s) : 6 channels
Channel positions : Front: L C R, Side: L R, LFE
Sampling rate : 48.0 KHz
Frame rate : 31.250 fps (1536 spf)
Compression mode : Lossy
Stream size : 248 MiB (7%)
Language : English
Default : No
Forced : No

Text #1
ID : 4
Format : UTF-8
Codec ID : S_TEXT/UTF8
Codec ID/Info : UTF-8 Plain Text
Duration : 1h 21mn
Bit rate : 46 bps
Count of elements : 690
Stream size : 27.9 KiB (0%)
Language : English
Default : No
Forced : No

Text #2
ID : 5
Format : UTF-8
Codec ID : S_TEXT/UTF8
Codec ID/Info : UTF-8 Plain Text
Duration : 1h 21mn
Bit rate : 46 bps
Count of elements : 690
Stream size : 27.9 KiB (0%)
Title : SDH
Language : English
Default : No
Forced : No

Menu
00:00:00.000 : en:Chapter 1
00:08:58.000 : en:Chapter 2
00:17:23.000 : en:Chapter 3
00:24:36.000 : en:Chapter 4
00:32:11.000 : en:Chapter 5
00:40:41.000 : en:Chapter 6
00:48:48.000 : en:Chapter 7
00:57:18.000 : en:Chapter 8
01:06:26.000 : en:Chapter 9
01:13:59.000 : en:Chapter 10
01:23:13.000 : en:Chapter 11



Скачать Познать.неизведанное.Approaching.the.Unknown.(Марк.Элайджа.Розенберг).[2016.фантастика.триллер.драма.WEB-DL].[1080p].[MVO]+[Eng]+[Sub.Eng].torrent без регистрации
Золото ЗОЛОТАЯ РАЗДАЧА! СКАЧАННОЕ НЕ ЗАСЧИТЫВАЕТСЯ! Золото
Дата: Зарегистрирован   [ Тип: внутренний ] Как тут cкачать?
MAGNET ссылка
MAGNET ссылка


Скачать .torrent

18 KB

Статус: проверено DHT
Скачан: торрент - 208 раз, раздача полностью - 277 раз
Размер: 3,48 GB
Оценка:  5 (Голосов: 2)
Поблагодарили: 8
Поделиться ссылкой на эту раздачу с друзьями:
В контактеFacebookОдноклассникиTwitterLivejournalМой МирLiveinternet
 

 
Показать сообщения:    


Вы не можете начинать темы
Вы не можете отвечать на сообщения
Вы не можете редактировать свои сообщения
Вы не можете удалять свои сообщения
Вы не можете голосовать в опросах
Вы не можете прикреплять файлы к сообщениям
Вы можете скачивать файлы