Loading...
Error

Скачать [SERIAL] Проповедник / Preacher (сезоны 01-02) (Эван Голдберг и др.) [2016-2017, фэнтези, драма, детектив, приключения, WEB-DLRip] [MP4, 640x360] [MVO (AlexFilm)] торрент без регистрации

Статистика раздачи
Размер:  4,67 GB   |    Скачан:  37 раз
Сидов:  1  [  0 KB/s  ]  

 
 
 
Автор Сообщение

МихаНЕзатор

[] 

Информация о фильме
Название: Проповедник
Оригинальное название: Preacher
Год выхода: 2016
Жанр: фэнтези, драма, детектив, приключения
Режиссер: Эван Голдберг, Сет Роген, Майкл Словис

В ролях: Доминик Купер, Том Брук, У. Эрл Браун, Йен Коллетти, Джозеф Гилган, Люси Гриффитс, Джеки Эрл Хейли, Рут Негга, Дерек Уилсон, Анатол Юсеф

О фильме: Джесси Кастер выбрал для себя путь служения Богу. Но все религиозные устои мужчины были нарушены, когда внутри него поселилось странное существо Генезис – плод совокупления демона и ангела. Генезис одновременно представляет собой бесспорную добродетель и в то же время абсолютное зло. Поэтому Джесси, как носитель этого своеобразного паразита, при желании может уподобиться самому Богу, а его физические и духовные силы возрастают до невиданных размеров. Однако Кастера мучает противоборство тёмной и светлой сторон Генезиса, постоянно сражающихся между собой. Чтобы избавиться от могущественного творения небес и ада, находящегося внутри него, проповедник объединяется с ирландским вампиром Кэссиди и бывшей возлюбленной Тюлип. Они отправляются искать Бога, чтобы получить ответы на насущные вопросы...



Страна: США
Студия: AMC Studios
Продолжительность: 23 x ~00:45:00
Перевод: Профессиональный (многоголосый, закадровый) [AlexFilm]

Файл
Формат: MP4
Качество: WEB-DLRip | КПК
Видео: MPEG-4 AVC (x264), 640x360, ~500 kbps, 23.976 fps
Аудио: AAC LC, 48.0 KHz, 2 ch, 128 Kbps
Субтитры: Нет

АНОНСЫ ПОПУЛЯРНЫХ РАЗДАЧ
Complete name : L:киноPropovednik.AVC.KPK.GFPropovednik.S02.2017.AVC.WEB-DLRip.KPK.AF.GFPropovednik.s02e03.2017.AVC.WEB-DLRip.KPK.AF.GF.mp4
Format : MPEG-4
Codec ID : M4V (isom/iso2/avc1)
File size : 204 MiB
Duration : 45 min 4 s
Overall bit rate mode : Variable
Overall bit rate : 634 kb/s
Writing application : Lavf53.19.0

Video
ID : 1
Format : AVC
Format/Info : Advanced Video Codec
Format profile : High@L4.1
Format settings, CABAC : Yes
Format settings, ReFrames : 8 frames
Codec ID : avc1
Codec ID/Info : Advanced Video Coding
Duration : 45 min 4 s
Source duration : 16 min 26 s
Bit rate : 500 kb/s
Width : 640 pixels
Height : 360 pixels
Display aspect ratio : 16:9
Frame rate mode : Constant
Frame rate : 23.976 FPS
Color space : YUV
Chroma subsampling : 4:2:0
Bit depth : 8 bits
Scan type : Progressive
Bits/(Pixel*Frame) : 0.091
Stream size : 161 MiB (79%)
Source stream size : 161 MiB (79%)
Writing library : x264 core 146 r2538 121396c
Encoding settings : cabac=1 / ref=8 / deblock=1:-2:-2 / analyse=0x3:0x133 / me=umh / subme=10 / psy=1 / psy_rd=1.00:0.00 / mixed_ref=1 / me_range=24 / chroma_me=1 / trellis=2 / 8x8dct=1 / cqm=0 / deadzone=21,11 / fast_pskip=1 / chroma_qp_offset=-2 / threads=12 / lookahead_threads=2 / sliced_threads=0 / nr=0 / decimate=0 / interlaced=0 / bluray_compat=0 / constrained_intra=0 / bframes=8 / b_pyramid=2 / b_adapt=2 / b_bias=0 / direct=3 / weightb=1 / open_gop=0 / weightp=2 / keyint=240 / keyint_min=121 / scenecut=40 / intra_refresh=0 / rc_lookahead=40 / rc=2pass / mbtree=1 / bitrate=500 / ratetol=1.0 / qcomp=0.60 / qpmin=0 / qpmax=69 / qpstep=4 / cplxblur=20.0 / qblur=0.5 / ip_ratio=1.40 / aq=1:1.00
Menus : 3
mdhd_Duration : 2704748

Audio
ID : 2
Format : AAC
Format/Info : Advanced Audio Codec
Format profile : LC
Codec ID : 40
Duration : 45 min 4 s
Bit rate mode : Variable
Bit rate : 128 kb/s
Channel(s) : 2 channels
Channel positions : Front: L R
Sampling rate : 48.0 kHz
Frame rate : 46.875 FPS (1024 spf)
Compression mode : Lossy
Stream size : 41.3 MiB (20%)
Default : Yes
Alternate group : 1
Menus : 3




Скачать Проповедник.Preacher.(сезоны.01-02).(Эван.Голдберг.и.др.).[2016-2017.фэнтези.драма.детектив.приключения.WEB-DLRip].[MP4.640x360].[MVO.(AlexFilm)].torrent без регистрации
Золото ЗОЛОТАЯ РАЗДАЧА! СКАЧАННОЕ НЕ ЗАСЧИТЫВАЕТСЯ! Золото
Дата: Зарегистрирован   [ Тип: внутренний ] Как тут cкачать?
MAGNET ссылка
MAGNET ссылка


Скачать .torrent

15 KB

Статус: проверено DHT
Скачан: торрент - 37 раз, раздача полностью - 2 раз
Размер: 4,67 GB
Оценка:  - (Голосов: 0)
Поблагодарили: 0
Поделиться ссылкой на эту раздачу с друзьями:
В контактеFacebookОдноклассникиTwitterLivejournalМой МирLiveinternet
 

 
Показать сообщения:    


Вы не можете начинать темы
Вы не можете отвечать на сообщения
Вы не можете редактировать свои сообщения
Вы не можете удалять свои сообщения
Вы не можете голосовать в опросах
Вы не можете прикреплять файлы к сообщениям
Вы можете скачивать файлы