Loading...
Error

Скачать Судья Дредд 3D / Dredd (Пит Трэвис) [2012, Фантастика, боевик, триллер, BDRip] [1080p][NOR Transfer] [DUB RUS+MVO UKR][Лицензия] [R.G. GoldenShara] торрент без регистрации

Статистика раздачи
Размер:  4,36 GB   |    Скачан:  540 раз
Сидов:  1  [  0 KB/s  ]  
 
 
 
Автор Сообщение

Magnetto83

[] 


Судья Дредд 3D/ Dredd


Год выпуска: 2012
Выпущено: Великобритания, США, Индия, ЮАР
Жанр: Фантастика, боевик, триллер
Продолжительность: 01:35:36
Перевод 1: Профессиональный (полное дублирование) [cтудия "Пифагор"]
Перевод 2: Профессиональный (Многоголосый) [Cтудия «Омикрон»]
Субтитры: Русские (Полные два вида), Английские (Full + SDH)
Навигация по главам: Сохранены оригинальные главы как на Blu-ray

Слоган: «Я – закон»

Режиссер: Пит Трэвис

В ролях: Карл Урбан, Оливия Тирлби, Лина Хиди, Вуд Харрис, Рэйчел Вуд, Андил Мнгади, Портес Ксандо Стинкамп, Джейсон Коуп, Эмма Бреши, Рэки Айола

Описание: Будущее не столь красочно и великолепно, каким его представляют современные люди. Через несколько столетий человечество окажется на грани самоуничтожения, захлёбываясь в кровавых преступлениях, смертельных грехах и беспорядочных убийствах. Старую систему правосудия будет невозможно использовать — анархия, всеобщие беспорядки вынуждают ещё сохранившуюся власть, тем не менее, потерявшую всякий авторитет и легитимность, пойти на отчаянные крайние меры и ввести институт Судей — универсальных полицейских, правоприменителей, а по совместительству — и прокуроров, которые упростили бы весь процесс задержания, следствия и судебных тяжб, совмещая в одном лице все должности блюстителей и защитников правопорядка.

Негодяи, подонки, вконец обнаглевшие и распоясавшиеся преступники и бандитские группировки всё равно не желают сдавать свои упрочившие позиции, опасаясь лишь одного — встречи с легендарным Судьёй Дреддом, пересажавшим или расстрелявшим не одну сотню насильников, террористов и жадных до человеческих страданий маньяков. В то время, как беспорядки и бесчинства бушуют на улицах города, Дредд спешит вернуть порядок, Закон и тишину, которым, кажется, уже никогда не обрести свою былую полноту, мощь и силу…




Возраст: 18+ (зрителям, достигшим 18 лет! Запрещено для детей!)
Рейтинг MPAA: R (Лицам до 17 лет обязательно присутствие взрослого)

Качество: BDRip 1080p
Формат: MKV
Видео кодек: H.264
Аудио кодек: AC3
Видео: 1920x800 (2.40:1), 5707 Кбит/с, 23.976 fps
Аудио 1: Русский Dolby Digital 5.1 (448 Кбит/с)
Аудио 2: Украинский Dolby Digital 5.1 (384 Кбит/с)


x264 [info]: frame I:1073 Avg QP:17.76 size:140839
x264 [info]: frame P:30488 Avg QP:20.69 size: 55244
x264 [info]: frame B:105969 Avg QP:22.65 size: 21116
x264 [info]: consecutive B-frames: 2.9% 2.6% 10.9% 12.7% 11.5% 51.5% 3.7% 2.0% 2.1%
x264 [total]: encoded 137530 frames, 1.12 fps, 5680.47 kb/s



Complete name : D:\Видео\1080 Собственные Рипы\Судья Дредд 2012 Dub Rus + MVO Ukr BDRip 1080p NOR Transfer.mkv
Format : Matroska
Format version : Version 4 / Version 2
File size : 4.36 GiB
Duration : 1h 35mn
Overall bit rate : 6 531 Kbps
Movie name : Судья Дредд 2012 Dub Rus + Mv0 Ukr BDRip 1080p NOR Transfer By Magnetto 83
Encoded date : UTC 2016-06-27 15:36:48
Writing application : mkvmerge v7.8.0 ('River Man') 32bit built on Mar 27 2015 16:18:02
Writing library : libebml v1.3.1 + libmatroska v1.4.2
DURATION : 01:28:10.785000000
NUMBER_OF_FRAMES : 1011
NUMBER_OF_BYTES : 30599
_STATISTICS_WRITING_APP : mkvmerge v7.8.0 ('River Man') 32bit built on Mar 27 2015 16:18:02
_STATISTICS_WRITING_DATE_UTC : 2016-06-27 15:36:48
_STATISTICS_TAGS : BPS DURATION NUMBER_OF_FRAMES NUMBER_OF_BYTES
Attachment : Постер

Video
ID : 1
Format : AVC
Format/Info : Advanced Video Codec
Format profile : High@L4.1
Format settings, CABAC : Yes
Format settings, ReFrames : 5 frames
Codec ID : V_MPEG4/ISO/AVC
Bit rate : 5 707 Kbps
Width : 1 920 pixels
Height : 800 pixels
Display aspect ratio : 2.40:1
Frame rate mode : Variable
Original frame rate : 23.976 fps
Color space : YUV
Chroma subsampling : 4:2:0
Bit depth : 8 bits
Scan type : Progressive
Bits/(Pixel*Frame) : 0.155
Title : Судья Дредд 2012 BDRip 1080p
Writing library : x264 core 146 r2538 121396c
Encoding settings : cabac=1 / ref=5 / deblock=1:-1:-1 / analyse=0x3:0x113 / me=umh / subme=11 / psy=1 / psy_rd=1.00:0.00 / mixed_ref=1 / me_range=32 / chroma_me=1 / trellis=2 / 8x8dct=1 / cqm=0 / deadzone=21,11 / fast_pskip=0 / chroma_qp_offset=-2 / threads=3 / lookahead_threads=1 / sliced_threads=0 / nr=0 / decimate=1 / interlaced=0 / bluray_compat=0 / constrained_intra=0 / bframes=8 / b_pyramid=2 / b_adapt=2 / b_bias=0 / direct=3 / weightb=1 / open_gop=0 / weightp=2 / keyint=250 / keyint_min=23 / scenecut=40 / intra_refresh=0 / rc=2pass / mbtree=0 / bitrate=5707 / ratetol=1.0 / qcomp=0.60 / qpmin=0 / qpmax=69 / qpstep=4 / cplxblur=20.0 / qblur=0.5 / ip_ratio=1.40 / pb_ratio=1.30 / aq=2:1.00
Default : Yes
Forced : No

Audio #1
ID : 2
Format : AC-3
Format/Info : Audio Coding 3
Mode extension : CM (complete main)
Format settings, Endianness : Big
Codec ID : A_AC3
Duration : 1h 35mn
Bit rate mode : Constant
Bit rate : 448 Kbps
Channel(s) : 6 channels
Channel positions : Front: L C R, Side: L R, LFE
Sampling rate : 48.0 KHz
Bit depth : 16 bits
Compression mode : Lossy
Stream size : 306 MiB (7%)
Title : DD 5.1 @448 Kbps Дубляж Лицензия
Language : Russian
Default : No
Forced : Yes

Audio #2
ID : 3
Format : AC-3
Format/Info : Audio Coding 3
Mode extension : CM (complete main)
Format settings, Endianness : Big
Codec ID : A_AC3
Duration : 1h 35mn
Bit rate mode : Constant
Bit rate : 384 Kbps
Channel(s) : 6 channels
Channel positions : Front: L C R, Side: L R, LFE
Sampling rate : 48.0 KHz
Bit depth : 16 bits
Compression mode : Lossy
Stream size : 263 MiB (6%)
Title : DD 5.1 @ 384 Kbps MVO [Cтудия «Омикрон»]
Language : Ukrainian
Default : No
Forced : No

Text #1
ID : 4
Format : UTF-8
Codec ID : S_TEXT/UTF8
Codec ID/Info : UTF-8 Plain Text
Title : Blu-ray
Language : Russian
Default : No
Forced : No

Text #2
ID : 5
Format : UTF-8
Codec ID : S_TEXT/UTF8
Codec ID/Info : UTF-8 Plain Text
Title : Groby
Language : Russian
Default : No
Forced : No

Text #3
ID : 6
Format : UTF-8
Codec ID : S_TEXT/UTF8
Codec ID/Info : UTF-8 Plain Text
Title : Full
Language : English
Default : No
Forced : No

Text #4
ID : 7
Format : UTF-8
Codec ID : S_TEXT/UTF8
Codec ID/Info : UTF-8 Plain Text
Title : SDH
Language : English
Default : No
Forced : No

Menu
00:00:00.000 : :Chapter 01
00:13:33.854 : :Chapter 02
00:26:33.341 : :Chapter 03
00:39:32.661 : :Chapter 04
00:51:02.267 : :Chapter 05
01:04:03.881 : :Chapter 06
01:18:01.385 : :Chapter 07
01:29:53.679 : :Chapter 08







Скачать Судья.Дредд.3D.Dredd.(Пит.Трэвис).[2012.Фантастика.боевик.триллер.BDRip].[1080p][NOR.Transfer].[DUB.RUS+MVO.UKR][Лицензия].[R.G.GoldenShara].torrent без регистрации
Золото ЗОЛОТАЯ РАЗДАЧА! СКАЧАННОЕ НЕ ЗАСЧИТЫВАЕТСЯ! Золото
Дата: Зарегистрирован   [ Тип: внутренний ] Как тут cкачать?
MAGNET ссылка
MAGNET ссылка


Скачать .torrent

11 KB

Статус: проверено
Скачан: торрент - 540 раз, раздача полностью - 128 раз
Размер: 4,36 GB
Оценка:  5 (Голосов: 7)
Поблагодарили: 16
Поделиться ссылкой на эту раздачу с друзьями:
В контактеFacebookОдноклассникиTwitterLivejournalМой МирLiveinternet
 

 

Magnetto83

[] 

az !!!ВСЕМ ПРИЯТНОГО ПРОСМОТРА И ПОЗИТИВНЫХ ЭМОЦИЙ!!! az

ad Друзья, скачав, не уходите с раздачи!!! Это залог постоянных релизов и новых рипов!!! ad

P.S.: Если нужно вернуться на любую из моих раздач - пишите в личные сообщения!
 

raines

[] 

Спасибо за раздачу!
 

Magnetto83

[] 

az Пожалуйста!!! ad
 
Показать сообщения:    


Вы не можете начинать темы
Вы не можете отвечать на сообщения
Вы не можете редактировать свои сообщения
Вы не можете удалять свои сообщения
Вы не можете голосовать в опросах
Вы не можете прикреплять файлы к сообщениям
Вы можете скачивать файлы