Loading...
Error

Скачать [SERIAL] Бесстыдники / Shameless (US) (сезоны 01-07) (Марк Майлод и др.) [2011-2016, драма, комедия, HDRip, HDTVRip] [MP4, 640x360] [MVO (AlexFilm)] торрент без регистрации

Статистика раздачи
Размер:  19,83 GB   |    Скачан:  20 раз
Сидов:  1  [  34 KB/s  ]  

 
 
 
Автор Сообщение

МихаНЕзатор

[] 

Информация о фильме
Название: Бесстыжие / Бесстыдники
Оригинальное название: Shameless
Год выхода: 2011
Жанр: Драма, Комедия
Режиссер: Марк Майлод, Джон Уэллс, Мими Ледер, Санаа Хамри, Питер Сигал

В ролях: Уильям Х. Мэйси, Эмми Россам, Камерон Монахэн, Джереми Аллен Уайт, Эмма Кинни, Итэн Каткоски, Блейк Александр Джонсон, Бреннан Кэйн Джонсон, Шанола Хэмптон, Стив Хоуи, Джоан Кьюсак, Ноэль Фишер, Эмма Гринвелл, Джэйк Макдорман...

О фильме: Американский ремейк британского сериала, повествующий о взбалмошной многодетной семье Галлахеров и их соседях, которые веселятся, попадают в самые невероятные ситуации, зайдите к ним гости, и вас заботливо накормят позавчерашними макаронами, дадут поспать на диване, через секунду вы будете посланы далеко и надолго, а уже через десять секунд вы вместе с ними будете лететь в ближайшую тюрьму вытаскивать из очередной передряги оступившегося члена семьи, или выкапывать на заднем дворе тело почившей 12 лет назад тетушки, или мчаться в соседний город для поиска заработка самыми безбашенными методами...

Релиз от:

Внимание! Сериал содержит сцены насилия и сексуального характера, а также ненормативную лексику И ГОМОСЯТИНУ, не рекомендуется к просмотру лицам до 18 лет.

Страна: США
Студия: Showtime, Sterling Films (V), Warner Bros. Television
Продолжительность: 84 x ~ 00:52:00
Перевод: Профессиональный (многоголосый, закадровый) [AlexFilm]
HDTVRip - видеоряд без рекламы и логотипа телеканала

Файл
Формат: MP4
Качество: HDRip, HDTVRip | КПК
Видео: MPEG-4 AVC (x264), 640x360, ~500 kbps, 23.976 fps
Аудио: AAC LC, 48.0 KHz, 2 ch, 128 Kbps
Субтитры: Нет

АНОНСЫ ПОПУЛЯРНЫХ РАЗДАЧ
Complete name : E:KinoBesstydniki.AVC.KPK.GFBesstydniki.S03.2013.AVC.HDRip.KPK.AF.GFBesstydniki.s03e03.2013.AVC.HDRip.KPK.AF.GF.mp4
Format : MPEG-4
Codec ID : M4V (isom/iso2/avc1)
File size : 241 MiB
Duration : 53 min 10 s
Overall bit rate mode : Variable
Overall bit rate : 633 kb/s
Writing application : Lavf53.19.0

Video
ID : 1
Format : AVC
Format/Info : Advanced Video Codec
Format profile : High@L4.1
Format settings, CABAC : Yes
Format settings, ReFrames : 8 frames
Codec ID : avc1
Codec ID/Info : Advanced Video Coding
Duration : 53 min 9 s
Source duration : 24 min 31 s
Bit rate : 500 kb/s
Width : 640 pixels
Height : 360 pixels
Display aspect ratio : 16:9
Frame rate mode : Constant
Frame rate : 23.976 FPS
Color space : YUV
Chroma subsampling : 4:2:0
Bit depth : 8 bits
Scan type : Progressive
Bits/(Pixel*Frame) : 0.091
Stream size : 190 MiB (79%)
Source stream size : 190 MiB (79%)
Writing library : x264 core 146 r2538 121396c
Encoding settings : cabac=1 / ref=8 / deblock=1:-2:-2 / analyse=0x3:0x133 / me=umh / subme=10 / psy=1 / psy_rd=1.00:0.00 / mixed_ref=1 / me_range=24 / chroma_me=1 / trellis=2 / 8x8dct=1 / cqm=0 / deadzone=21,11 / fast_pskip=1 / chroma_qp_offset=-2 / threads=12 / lookahead_threads=2 / sliced_threads=0 / nr=0 / decimate=0 / interlaced=0 / bluray_compat=0 / constrained_intra=0 / bframes=8 / b_pyramid=2 / b_adapt=2 / b_bias=0 / direct=3 / weightb=1 / open_gop=0 / weightp=2 / keyint=240 / keyint_min=121 / scenecut=40 / intra_refresh=0 / rc_lookahead=40 / rc=2pass / mbtree=1 / bitrate=500 / ratetol=1.0 / qcomp=0.60 / qpmin=0 / qpmax=69 / qpstep=4 / cplxblur=20.0 / qblur=0.5 / ip_ratio=1.40 / aq=1:1.00
Menus : 3
mdhd_Duration : 3189150

Audio
ID : 2
Format : AAC
Format/Info : Advanced Audio Codec
Format profile : LC
Codec ID : 40
Duration : 53 min 10 s
Bit rate mode : Variable
Bit rate : 128 kb/s
Channel(s) : 2 channels
Channel positions : Front: L R
Sampling rate : 48.0 kHz
Frame rate : 46.875 FPS (1024 spf)
Compression mode : Lossy
Stream size : 48.6 MiB (20%)
Default : Yes
Alternate group : 1
Menus : 3




Скачать Бесстыдники.Shameless.(US).(сезоны.01-07).(Марк.Майлод.и.др.).[2011-2016.драма.комедия.HDRip.HDTVRip].[MP4.640x360].[MVO.(AlexFilm)].torrent без регистрации
Золото ЗОЛОТАЯ РАЗДАЧА! СКАЧАННОЕ НЕ ЗАСЧИТЫВАЕТСЯ! Золото
Дата: Зарегистрирован   [ Тип: внутренний ] Как тут cкачать?
MAGNET ссылка
MAGNET ссылка


Скачать .torrent

61 KB

Статус: проверено DHT
Скачан: торрент - 20 раз, раздача полностью - 11 раз
Размер: 19,83 GB
Оценка:  - (Голосов: 0)
Поблагодарили: 0
Поделиться ссылкой на эту раздачу с друзьями:
В контактеFacebookОдноклассникиTwitterLivejournalМой МирLiveinternet
 

 
Показать сообщения:    


Вы не можете начинать темы
Вы не можете отвечать на сообщения
Вы не можете редактировать свои сообщения
Вы не можете удалять свои сообщения
Вы не можете голосовать в опросах
Вы не можете прикреплять файлы к сообщениям
Вы можете скачивать файлы