Loading...
Error

Скачать Доверие / The Trust (Бенжамин Брюэр) [2016, триллер, криминал, BDRemux] [1080p] [Dub (лицензия iTunes)]+[AVO (В. Котов)]+[Eng]+[Sub Rus, Eng] торрент без регистрации

Статистика раздачи
Размер:  25,04 GB   |    Скачан:  48 раз
Сидов:  1  [  0 KB/s  ]  
 
 
 
Автор Сообщение

МихаНЕзатор

[] 

Информация о фильме
Название: Доверие
Оригинальное название: The Trust
Год выхода: 2016
Жанр: триллер, криминал
Режиссер: Бенжамин Брюэр

В ролях: Николас Кейдж, Элайджа Вуд, Джерри Льюис, Стивен Уильямс, Скай Феррейра, Кевин Уайзман, Лиза Гарднер, Кристи Беран, Джеффри Ховард, Томми Вегас

О фильме: Парочка коррумпированных полицейских в отделе улик обнаруживает сейф с нарко-деньгами. Решив похитить тайник, они не подозревают, что вступают в игру за собственные жизни.

Релиз от: Автор релиза:

Страна: Великобритания
Студия: Electric Shadow Company, The ; Hassell Free Production, Highland Film Group (HFG), Ingenious Media, Prettybird, Saban Films, Saeculum Productions
Продолжительность: 01:31:43
Перевод(ы):
#1: Дублированный | iTunes
#2: Авторский | Вячеслав Котов

Файл
Качество: BDRemux 1080p
Видео: MPEG-4 AVC, 1920x1080, 35.0 Mbit/s, 23.976 fps
Звук:
Аудио #01: 48 kHz, AC3, 5.1, 384 Kbps | iTunes | RUS |
Аудио #02: 48 kHz, DTS-HD MA, 5.1, 2431 Kbps | Авторский | RUS |
Аудио #03: 48 kHz, DTS-HD MA, 5.1, 2426 kbps | Оригинал | ENG |
Субтитры: Русские, английские

АНОНСЫ ПОПУЛЯРНЫХ РАЗДАЧ


Торрент обновлён, добавлен дубляж!
General
Unique ID : 171220267331040090825322660980988806570 (0x80CFD2F1435EE52FA715A674783B85AA)
Complete name : F:VideoThe.Trust.2016.D.AVO.BDREMUX.1080p.ExKinoRay.mkv
Format : Matroska
Format version : Version 4 / Version 2
File size : 25.0 GiB
Duration : 1 h 31 min
Overall bit rate : 39.1 Mb/s
Movie name : The.Trust.2016 build by ***селезень***
Encoded date : UTC 2017-05-14 21:08:43
Writing application : mkvmerge v11.0.0 ('Alive') 64bit
Writing library : libebml v1.3.4 + libmatroska v1.4.5

Video
ID : 1
Format : AVC
Format/Info : Advanced Video Codec
Format profile : High@L4.1
Format settings, CABAC : Yes
Format settings, ReFrames : 4 frames
Codec ID : V_MPEG4/ISO/AVC
Duration : 1 h 31 min
Bit rate mode : Constant
Bit rate : 35.0 Mb/s
Width : 1 920 pixels
Height : 1 080 pixels
Display aspect ratio : 16:9
Frame rate mode : Constant
Frame rate : 23.976 (24000/1001) FPS
Standard : NTSC
Color space : YUV
Chroma subsampling : 4:2:0
Bit depth : 8 bits
Scan type : Progressive
Bits/(Pixel*Frame) : 0.704
Stream size : 21.7 GiB (87%)
Title : The.Trust.2016 build by ***селезень***
Language : English
Default : No
Forced : No
Color range : Limited
Color primaries : BT.709
Transfer characteristics : BT.709
Matrix coefficients : BT.709

Audio #1
ID : 2
Format : AC-3
Format/Info : Audio Coding 3
Format settings, Endianness : Big
Codec ID : A_AC3
Duration : 1 h 31 min
Bit rate mode : Constant
Bit rate : 384 kb/s
Channel(s) : 6 channels
Channel positions : Front: L C R, Side: L R, LFE
Sampling rate : 48.0 kHz
Frame rate : 31.250 FPS (1536 spf)
Bit depth : 16 bits
Compression mode : Lossy
Stream size : 252 MiB (1%)
Title : iTunes
Language : Russian
Service kind : Complete Main
Default : Yes
Forced : No

Audio #2
ID : 3
Format : DTS
Format/Info : Digital Theater Systems
Format profile : MA / Core
Mode : 16
Format settings, Endianness : Big
Codec ID : A_DTS
Duration : 1 h 31 min
Bit rate mode : Variable / Constant
Bit rate : 2 431 kb/s / 1 509 kb/s
Channel(s) : 6 channels
Channel positions : Front: L C R, Side: L R, LFE
Sampling rate : 48.0 kHz
Frame rate : 93.750 FPS (512 spf)
Bit depth : 16 bits
Compression mode : Lossless / Lossy
Stream size : 1.56 GiB (6%)
Title : AO-DTS-HD MA [Kotov]
Language : Russian
Default : No
Forced : No

Audio #3
ID : 4
Format : DTS
Format/Info : Digital Theater Systems
Format profile : MA / Core
Mode : 16
Format settings, Endianness : Big
Codec ID : A_DTS
Duration : 1 h 31 min
Bit rate mode : Variable / Constant
Bit rate : 2 426 kb/s / 1 509 kb/s
Channel(s) : 6 channels
Channel positions : Front: L C R, Side: L R, LFE
Sampling rate : 48.0 kHz
Frame rate : 93.750 FPS (512 spf)
Bit depth : 16 bits
Compression mode : Lossless / Lossy
Stream size : 1.55 GiB (6%)
Title : Original
Language : English
Default : No
Forced : No

Text #1
ID : 5
Format : UTF-8
Codec ID : S_TEXT/UTF8
Codec ID/Info : UTF-8 Plain Text
Duration : 1 h 22 min
Bit rate : 55 b/s
Count of elements : 618
Stream size : 33.5 KiB (0%)
Title : Full
Language : Russian
Default : No
Forced : No

Text #2
ID : 6
Format : UTF-8
Codec ID : S_TEXT/UTF8
Codec ID/Info : UTF-8 Plain Text
Duration : 1 h 23 min
Bit rate : 37 b/s
Count of elements : 790
Stream size : 23.0 KiB (0%)
Title : Full
Language : English
Default : No
Forced : No

Menu
00:00:00.000 : en:Chapter 01
00:08:26.047 : en:Chapter 02
00:15:33.265 : en:Chapter 03
00:20:30.729 : en:Chapter 04
00:28:15.610 : en:Chapter 05
00:35:00.598 : en:Chapter 06
00:40:28.509 : en:Chapter 07
00:48:53.847 : en:Chapter 08
00:56:25.924 : en:Chapter 09
01:04:44.171 : en:Chapter 10
01:14:14.366 : en:Chapter 11
01:23:31.965 : en:Chapter 12
01:31:43.456 : en:Chapter 13
В авторской озвучке присутствует ненормативная лексика



Скачать Доверие.The.Trust.(Бенжамин.Брюэр).[2016.триллер.криминал.BDRemux].[1080p].[Dub.(лицензия.iTunes)]+[AVO.(В.Котов)]+[Eng]+[Sub.Rus.Eng].torrent без регистрации
Золото ЗОЛОТАЯ РАЗДАЧА! СКАЧАННОЕ НЕ ЗАСЧИТЫВАЕТСЯ! Золото
Дата: Зарегистрирован   [ Тип: внутренний ] Как тут cкачать?
MAGNET ссылка
MAGNET ссылка


Скачать .torrent

126 KB

Статус: проверено DHT
Скачан: торрент - 48 раз, раздача полностью - 17 раз
Размер: 25,04 GB
Оценка:  - (Голосов: 0)
Поблагодарили: 3
Поделиться ссылкой на эту раздачу с друзьями:
В контактеFacebookОдноклассникиTwitterLivejournalМой МирLiveinternet
 

 
Показать сообщения:    


Вы не можете начинать темы
Вы не можете отвечать на сообщения
Вы не можете редактировать свои сообщения
Вы не можете удалять свои сообщения
Вы не можете голосовать в опросах
Вы не можете прикреплять файлы к сообщениям
Вы можете скачивать файлы