Loading...
Error

Скачать Отряд самоубийц / Suicide Squad (Дэвид Эйр) [2016, фантастика, боевик, комедия, приключения, BDRip] [720p] [DUB] [Театральная версия] [R.G. GoldenShara] торрент без регистрации

Статистика раздачи
Размер:  2,75 GB   |    Скачан:  252 раза

Полного источника не было: 6 часов

 
 
 
Автор Сообщение

LORDKILL

[] 


Отряд самоубийц / Suicide Squad


Год выпуска: 2016
Выпущено: США
Жанр: фантастика, боевик, комедия, приключения
Продолжительность: 02:02:53
Перевод: Профессиональный (полное дублирование)
Субтитры: Русские (форс., полные), английские

Режиссер: Дэвид Эйр

В ролях: Марго Робби, Уилл Смит, Джаред Лето, Джай Кортни, Кара Делевинь, Джей Эрнандес, Юэль Киннаман, Виола Дэвис

Описание: Правительство решает дать команде суперзлодеев шанс на искупление. Подвох в том, что их отправляют на миссию, где они, вероятнее всего, погибнут.







Качество: BDRip 720p
Формат: MKV
Видео кодек: H.264
Аудио кодек: AC3
Видео: 1280x536 (2.40:1), 2754 kbps, 23.976 fps
Аудио: Русский (AC-3, 6ch, 448 kbps)

x264 [info]: frame I:1626 Avg QP:16.80 size: 92725
x264 [info]: frame P:39119 Avg QP:18.56 size: 30661
x264 [info]: frame B:136042 Avg QP:21.53 size: 8737
x264 [info]: consecutive B-frames: 2.6% 2.7% 11.0% 13.5% 20.0% 40.4% 6.6% 1.8% 1.1% 0.2%
x264 [total]: encoded 176787 frames, 7.25 fps, 2754.45 kb/s
General
Unique ID : 175135743641018348525703624071564451660 (0x83C1EAD43E4B9434B76570125C975F4C)
Complete name : F:\ФИЛЬМЫ\Отряд.самоубийц.2016.x264.BDRip.720p.DUB.mkv
Format : Matroska
Format version : Version 4 / Version 2
File size : 2.75 GiB
Duration : 2 h 2 min
Overall bit rate : 3 204 kb/s
Movie name : Отряд самоубийц (2016) - #LORDKILL#
Encoded date : UTC 2016-12-02 13:08:19
Writing application : mkvmerge v8.0.0 ('Til The Day That I Die') 64bit
Writing library : libebml v1.3.1 + libmatroska v1.4.2

Video
ID : 1
Format : AVC
Format/Info : Advanced Video Codec
Format profile : High@L4.1
Format settings, CABAC : Yes
Format settings, ReFrames : 11 frames
Codec ID : V_MPEG4/ISO/AVC
Duration : 2 h 2 min
Bit rate : 2 754 kb/s
Width : 1 280 pixels
Height : 536 pixels
Display aspect ratio : 2.40:1
Frame rate mode : Constant
Frame rate : 23.976 (24000/1001) FPS
Color space : YUV
Chroma subsampling : 4:2:0
Bit depth : 8 bits
Scan type : Progressive
Bits/(Pixel*Frame) : 0.167
Stream size : 2.36 GiB (86%)
Writing library : x264 core 146 r2538 121396c
Encoding settings : cabac=1 / ref=11 / deblock=1:-2:-2 / analyse=0x3:0x113 / me=umh / subme=11 / psy=1 / psy_rd=1.00:0.15 / mixed_ref=1 / me_range=32 / chroma_me=1 / trellis=2 / 8x8dct=1 / cqm=0 / deadzone=21,11 / fast_pskip=0 / chroma_qp_offset=-3 / threads=12 / lookahead_threads=2 / sliced_threads=0 / nr=0 / decimate=1 / interlaced=0 / bluray_compat=0 / constrained_intra=0 / bframes=9 / b_pyramid=2 / b_adapt=2 / b_bias=0 / direct=1 / weightb=1 / open_gop=0 / weightp=2 / keyint=240 / keyint_min=23 / scenecut=40 / intra_refresh=0 / rc=crf / mbtree=0 / crf=20.0 / qcomp=0.60 / qpmin=0 / qpmax=69 / qpstep=4 / ip_ratio=1.40 / pb_ratio=1.30 / aq=1:1.00
Default : Yes
Forced : No

Audio
ID : 2
Format : AC-3
Format/Info : Audio Coding 3
Mode extension : CM (complete main)
Format settings, Endianness : Big
Codec ID : A_AC3
Duration : 2 h 2 min
Bit rate mode : Constant
Bit rate : 448 kb/s
Channel(s) : 6 channels
Channel positions : Front: L C R, Side: L R, LFE
Sampling rate : 48.0 kHz
Frame rate : 31.250 FPS (1536 spf)
Bit depth : 16 bits
Compression mode : Lossy
Stream size : 394 MiB (14%)
Title : Дубляж
Language : Russian
Default : Yes
Forced : No

Text #1
ID : 3
Format : UTF-8
Codec ID : S_TEXT/UTF8
Codec ID/Info : UTF-8 Plain Text
Duration : 1 h 51 min
Bit rate : 5 b/s
Count of elements : 102
Stream size : 4.42 KiB (0%)
Title : Forced
Language : Russian
Default : No
Forced : No

Text #2
ID : 4
Format : UTF-8
Codec ID : S_TEXT/UTF8
Codec ID/Info : UTF-8 Plain Text
Duration : 2 h 2 min
Bit rate : 70 b/s
Count of elements : 1388
Stream size : 63.1 KiB (0%)
Title : Full
Language : Russian
Default : No
Forced : No

Text #3
ID : 5
Format : UTF-8
Codec ID : S_TEXT/UTF8
Codec ID/Info : UTF-8 Plain Text
Duration : 1 h 55 min
Bit rate : 46 b/s
Count of elements : 1447
Stream size : 39.2 KiB (0%)
Title : Full
Language : English
Default : No
Forced : No

Menu
00:00:00.000 : en:
00:09:07.505 : en:
00:19:03.726 : en:
00:29:27.140 : en:
00:39:17.313 : en:
00:50:21.227 : en:
01:00:10.106 : en:
01:11:46.928 : en:
01:22:46.128 : en:
01:32:01.099 : en:
01:39:21.831 : en:
01:52:27.991 : en:





Скачать Отряд.самоубийц.Suicide.Squad.(Дэвид.Эйр).[2016.фантастика.боевик.комедия.приключения.BDRip].[720p].[DUB].[Театральная.версия].[R.G.GoldenShara].torrent без регистрации
Золото ЗОЛОТАЯ РАЗДАЧА! СКАЧАННОЕ НЕ ЗАСЧИТЫВАЕТСЯ! Золото
Дата: Зарегистрирован   [ Тип: внутренний ] Как тут cкачать?
MAGNET ссылка
MAGNET ссылка


Скачать .torrent

14 KB

Статус: проверено
Скачан: торрент - 252 раз, раздача полностью - 253 раз
Размер: 2,75 GB
Оценка:  5 (Голосов: 7)
Поблагодарили: 18
Поделиться ссылкой на эту раздачу с друзьями:
В контактеFacebookОдноклассникиTwitterLivejournalМой МирLiveinternet
 

 

asd-anane

[] 

УААААААААААА!!!!!!! ay СПАСИБО!!!!!!!!! az
 

7Жнец7

[] 

Нужна скорость.
Пожалуйста встаньте на раздачу.
Заранее Спасибо!
 
Показать сообщения:    


Вы не можете начинать темы
Вы не можете отвечать на сообщения
Вы не можете редактировать свои сообщения
Вы не можете удалять свои сообщения
Вы не можете голосовать в опросах
Вы не можете прикреплять файлы к сообщениям
Вы можете скачивать файлы