Loading...
Error

Скачать Москва на Гудзоне / Moscow On The Hudson (Пол Мазурски) [1984, драма, мелодрама, комедия, BDRip] [720p] [MVO]+[AVO]+[Eng]+[Sub] торрент без регистрации

Статистика раздачи
Размер:  9,97 GB   |    Скачан:  12 раз
Сидов:  1  [  0 KB/s  ]  
 
 
 
Автор Сообщение

Marsianka

[] 

Информация о фильме
Название: Москва на Гудзоне
Оригинальное название: Moscow on the Hudson
Год выхода: 1984
Жанр: драма, мелодрама, комедия
Режиссер: Пол Мазурски
В ролях: Робин Уильямс, Мария Кончита Алонсо, Кливант Деррикс, Алехандро Рей, Савелий Крамаров, Илья Баскин, Олег Рудник, Александр Бениаминов, Людмила Крамаревская, Иво Врзаль-Виганд

О фильме:
По иронии судьбы, играющий на саксофоне в оркестре советского цирка музыкант Владимир Иванов получил шанс, который, по совести, должен был выпасть его другу, клоуну Анатолию. Тот ненавидел советскую власть и страстно мечтал сбежать на Запад. Но вышло так, что во время гастролей московского цирка по Америке известного смутьяна Анатолия все время «пасли» агенты КГБ, а Владимир остался без «опеки». И наступает момент, когда робкий и тихий музыкант должен принять решение: остаться верным идеалом социализма - или сделать решительный шаг навстречу новой жизни, большой любви и, конечно же, желанной свободе.



Выпущено: США, Bavaria Film, Columbia Pictures Corporation, Delphi Premier Productions
Продолжительность: 01:57:15
Перевод: Профессиональный многоголосый, авторский одноголосый

Файл
Качество: BDRip 720p
Контейнер: MKV
Видео: MPEG-4 AVC, 9773 Кбит/с, 1280x678, 23.976 Кадр/с [BLUEBIRD]

№1 Dolby Digital Russian / 2.0 / 48 kHz / 192 kbps / DN -4dB - Профессиональный многоголосый (1 канал)
№2 Dolby Digital Russian / 448 kbps / 3.1 / 48 kHz / 448 kbps / DN -4dB - Авторский одноголосый (В. Горчаков)
№3 DTS Audio English 1509 kbps 5.1 / 48 kHz / 1509 kbps
Субтитры: English
x264 [info]: frame I:1040 Avg QP:17.12 size:166983
x264 [info]: frame P:32806 Avg QP:18.57 size: 88630
x264 [info]: frame B:134816 Avg QP:20.13 size: 42474

===============================================================================

Инфо-файл
Формат : Matroska
Версия формата : Version 2
Размер файла : 9,97 Гбайт
Продолжительность : 1 ч. 57 м.
Общий поток : 12,2 Мбит/сек
Название фильма : Moscow.on.the.Hudson.1984.x264.BDRip.720p.BLUEBIRD
Дата кодирования : UTC 2016-12-31 07:17:06
Программа кодирования : mkvmerge v7.9.0 ('Birds') 64bit
Библиотека кодирования : libebml v1.3.1 + libmatroska v1.4.2

Видео
Идентификатор : 1
Формат : AVC
Формат/Информация : Advanced Video Codec
Профиль формата : High@L4.1
Параметр CABAC формата : Да
Параметр ReFrames формата : 9 кадров
Идентификатор кодека : V_MPEG4/ISO/AVC
Продолжительность : 1 ч. 57 м.
Битрейт : 9773 Кбит/сек
Ширина : 1280 пикселей
Высота : 678 пикселей
Соотношение сторон : 1,888
Режим частоты кадров : Постоянный
Частота кадров : 23,976 (24000/1001) кадра/сек
Цветовое пространство : YUV
Субдискретизация насыщенности : 4:2:0
Битовая глубина : 8 бит
Тип развёртки : Прогрессивная
Бит/(Пиксели*Кадры) : 0.470
Размер потока : 8,01 Гбайт (80%)
Заголовок : Moscow.on.the.Hudson.1984.x264.BDRip.720p.BLUEBIRD
Библиотека кодирования : x264 core 148 r2721 72d53ab
Настройки программы : cabac=1 / ref=9 / deblock=1:-3:-3 / analyse=0x3:0x133 / me=umh / subme=11 / psy=1 / psy_rd=1.20:0.40 / mixed_ref=1 / me_range=64 / chroma_me=1 / trellis=2 / 8x8dct=1 / cqm=0 / deadzone=21,11 / fast_pskip=0 / chroma_qp_offset=-4 / threads=12 / lookahead_threads=2 / sliced_threads=0 / nr=0 / decimate=0 / interlaced=0 / bluray_compat=0 / constrained_intra=0 / bframes=7 / b_pyramid=2 / b_adapt=2 / b_bias=0 / direct=3 / weightb=1 / open_gop=0 / weightp=2 / keyint=240 / keyint_min=23 / scenecut=40 / intra_refresh=0 / rc_lookahead=60 / rc=crf / mbtree=0 / crf=17.7 / qcomp=0.70 / qpmin=0 / qpmax=69 / qpstep=4 / vbv_maxrate=62500 / vbv_bufsize=78125 / crf_max=0.0 / nal_hrd=none / filler=0 / ip_ratio=1.40 / pb_ratio=1.30 / aq=1:0.85
Язык : English
Default : Да
Forced : Нет

Аудио #1
Идентификатор : 2
Формат : AC-3
Формат/Информация : Audio Coding 3
Расширение режима : CM (complete main)
Параметр Endianness формата : Big
Идентификатор кодека : A_AC3
Продолжительность : 1 ч. 57 м.
Вид битрейта : Постоянный
Битрейт : 192 Кбит/сек
Каналы : 2 канала
Расположение каналов : Front: L R
Частота : 48,0 КГц
Частота кадров : 31,250 кадров/сек (1536 spf)
Метод сжатия : С потерями
Размер потока : 161 Мбайт (2%)
Заголовок : Профессиональный многоголосый (1 канал)
Язык : Russian
Default : Да
Forced : Нет

Аудио #2
Идентификатор : 3
Формат : AC-3
Формат/Информация : Audio Coding 3
Расширение режима : CM (complete main)
Параметр Endianness формата : Big
Идентификатор кодека : A_AC3
Продолжительность : 1 ч. 57 м.
Вид битрейта : Постоянный
Битрейт : 448 Кбит/сек
Каналы : 4 канала
Расположение каналов : Front: L C R, Back: C
Частота : 48,0 КГц
Частота кадров : 31,250 кадров/сек (1536 spf)
Метод сжатия : С потерями
Размер потока : 376 Мбайт (4%)
Заголовок : Авторский одноголосый (В. Горчаков)
Язык : Russian
Default : Нет
Forced : Нет

Аудио #3
Идентификатор : 4
Формат : DTS
Формат/Информация : Digital Theater Systems
Режим : 16
Параметр Endianness формата : Big
Идентификатор кодека : A_DTS
Продолжительность : 1 ч. 57 м.
Вид битрейта : Постоянный
Битрейт : 1509 Кбит/сек
Каналы : 6 каналов
Расположение каналов : Front: L C R, Side: L R, LFE
Частота : 48,0 КГц
Частота кадров : 93,750 кадра/сек (512 spf)
Битовая глубина : 24 бит
Метод сжатия : С потерями
Размер потока : 1,24 Гбайт (12%)
Язык : English
Default : Нет
Forced : Нет

Текст
Идентификатор : 5
Формат : UTF-8
Идентификатор кодека : S_TEXT/UTF8
Идентификатор кодека/Информация : UTF-8 Plain Text
Заголовок : SDH
Язык : English
Default : Нет
Forced : Нет

Меню
00:00:00.000 : en:00:00:00.000
00:03:55.735 : en:00:03:55.735
00:10:09.984 : en:00:10:09.984
00:14:57.105 : en:00:14:57.105
00:18:38.784 : en:00:18:38.784
00:23:31.076 : en:00:23:31.076
00:30:25.991 : en:00:30:25.991
00:32:28.822 : en:00:32:28.822
00:39:02.507 : en:00:39:02.507
00:43:13.966 : en:00:43:13.966
00:49:14.994 : en:00:49:14.994
00:54:53.957 : en:00:54:53.957
01:00:08.647 : en:01:00:08.647
01:03:37.063 : en:01:03:37.063
01:08:08.334 : en:01:08:08.334
01:14:20.414 : en:01:14:20.414
01:20:03.799 : en:01:20:03.799
01:22:44.918 : en:01:22:44.918
01:26:23.929 : en:01:26:23.929
01:32:09.858 : en:01:32:09.858
01:37:23.254 : en:01:37:23.254
01:41:34.672 : en:01:41:34.672
01:48:53.777 : en:01:48:53.777
01:52:38.335 : en:01:52:38.335



Скачать Москва.на.Гудзоне.Moscow.On.The.Hudson.(Пол.Мазурски).[1984.драма.мелодрама.комедия.BDRip].[720p].[MVO]+[AVO]+[Eng]+[Sub].torrent без регистрации
Золото ЗОЛОТАЯ РАЗДАЧА! СКАЧАННОЕ НЕ ЗАСЧИТЫВАЕТСЯ! Золото
Дата: Зарегистрирован   [ Тип: внутренний ] Как тут cкачать?
MAGNET ссылка
MAGNET ссылка


Скачать .torrent

26 KB

Статус: проверено DHT
Скачан: торрент - 12 раз, раздача полностью - 2 раз
Размер: 9,97 GB
Оценка:  - (Голосов: 0)
Поблагодарили: 0
Поделиться ссылкой на эту раздачу с друзьями:
В контактеFacebookОдноклассникиTwitterLivejournalМой МирLiveinternet
 

 
Показать сообщения:    


Вы не можете начинать темы
Вы не можете отвечать на сообщения
Вы не можете редактировать свои сообщения
Вы не можете удалять свои сообщения
Вы не можете голосовать в опросах
Вы не можете прикреплять файлы к сообщениям
Вы можете скачивать файлы